  0
SECTION
  2
HEADER
  9
$ACADVER
  1
AC1027
  9
$ACADMAINTVER
 70
   125
  9
$DWGCODEPAGE
  3
ANSI_1252
  9
$LASTSAVEDBY
  1
10013162
  9
$REQUIREDVERSIONS
160
                 0
  9
$INSBASE
 10
0.0
 20
0.0
 30
0.0
  9
$EXTMIN
 10
1.836802043670417
 20
4.232005865545211
 30
0.0
  9
$EXTMAX
 10
25.83680204367138
 20
22.23200586554594
 30
0.03
  9
$LIMMIN
 10
0.0
 20
0.0
  9
$LIMMAX
 10
22.0
 20
17.0
  9
$ORTHOMODE
 70
     1
  9
$REGENMODE
 70
     1
  9
$FILLMODE
 70
     1
  9
$QTEXTMODE
 70
     0
  9
$MIRRTEXT
 70
     0
  9
$LTSCALE
 40
1.209999999999999
  9
$ATTMODE
 70
     1
  9
$TEXTSIZE
 40
0.2
  9
$TRACEWID
 40
0.05
  9
$TEXTSTYLE
  7
ARIAL_NARROW_BOLD
  9
$CLAYER
  8
0
  9
$CELTYPE
  6
BYLAYER
  9
$CECOLOR
 62
   256
  9
$CELTSCALE
 40
1.0
  9
$DISPSILH
 70
     0
  9
$DIMSCALE
 40
2.0
  9
$DIMASZ
 40
0.1875
  9
$DIMEXO
 40
0.0625
  9
$DIMDLI
 40
0.8359999999999999
  9
$DIMRND
 40
0.0
  9
$DIMDLE
 40
0.0
  9
$DIMEXE
 40
0.09
  9
$DIMTP
 40
0.000001
  9
$DIMTM
 40
0.000001
  9
$DIMTXT
 40
0.125
  9
$DIMCEN
 40
0.198
  9
$DIMTSZ
 40
0.0
  9
$DIMTOL
 70
     0
  9
$DIMLIM
 70
     0
  9
$DIMTIH
 70
     1
  9
$DIMTOH
 70
     1
  9
$DIMSE1
 70
     0
  9
$DIMSE2
 70
     0
  9
$DIMTAD
 70
     0
  9
$DIMZIN
 70
     4
  9
$DIMBLK
  1

  9
$DIMASO
 70
     1
  9
$DIMSHO
 70
     1
  9
$DIMPOST
  1

  9
$DIMAPOST
  1

  9
$DIMALT
 70
     0
  9
$DIMALTD
 70
     2
  9
$DIMALTF
 40
25.4
  9
$DIMLFAC
 40
1.0
  9
$DIMTOFL
 70
     0
  9
$DIMTVP
 40
0.0
  9
$DIMTIX
 70
     0
  9
$DIMSOXD
 70
     0
  9
$DIMSAH
 70
     0
  9
$DIMBLK1
  1

  9
$DIMBLK2
  1

  9
$DIMSTYLE
  2
3PL
  9
$DIMCLRD
 70
   256
  9
$DIMCLRE
 70
   256
  9
$DIMCLRT
 70
   256
  9
$DIMTFAC
 40
1.0
  9
$DIMGAP
 40
0.09
  9
$DIMJUST
 70
     0
  9
$DIMSD1
 70
     0
  9
$DIMSD2
 70
     0
  9
$DIMTOLJ
 70
     1
  9
$DIMTZIN
 70
     0
  9
$DIMALTZ
 70
     0
  9
$DIMALTTZ
 70
     0
  9
$DIMUPT
 70
     0
  9
$DIMDEC
 70
     1
  9
$DIMTDEC
 70
     1
  9
$DIMALTU
 70
     2
  9
$DIMALTTD
 70
     2
  9
$DIMTXSTY
  7
ARIAL_NARROW_BOLD
  9
$DIMAUNIT
 70
     0
  9
$DIMADEC
 70
     0
  9
$DIMALTRND
 40
0.0
  9
$DIMAZIN
 70
     1
  9
$DIMDSEP
 70
    46
  9
$DIMATFIT
 70
     3
  9
$DIMFRAC
 70
     0
  9
$DIMLDRBLK
  1

  9
$DIMLUNIT
 70
     2
  9
$DIMLWD
 70
    -2
  9
$DIMLWE
 70
    -2
  9
$DIMTMOVE
 70
     0
  9
$DIMFXL
 40
1.0
  9
$DIMFXLON
 70
     0
  9
$DIMJOGANG
 40
0.7853981633974483
  9
$DIMTFILL
 70
     0
  9
$DIMTFILLCLR
 70
     0
  9
$DIMARCSYM
 70
     0
  9
$DIMLTYPE
  6

  9
$DIMLTEX1
  6

  9
$DIMLTEX2
  6

  9
$DIMTXTDIRECTION
 70
     0
  9
$LUNITS
 70
     2
  9
$LUPREC
 70
     4
  9
$SKETCHINC
 40
0.1
  9
$FILLETRAD
 40
0.0
  9
$AUNITS
 70
     0
  9
$AUPREC
 70
     0
  9
$MENU
  1
.
  9
$ELEVATION
 40
0.0
  9
$PELEVATION
 40
0.0
  9
$THICKNESS
 40
0.0
  9
$LIMCHECK
 70
     0
  9
$CHAMFERA
 40
0.0
  9
$CHAMFERB
 40
0.0
  9
$CHAMFERC
 40
0.0
  9
$CHAMFERD
 40
0.0
  9
$SKPOLY
 70
     0
  9
$TDCREATE
 40
2458604.494594907
  9
$TDUCREATE
 40
2458604.786264144
  9
$TDUPDATE
 40
2460108.304884260
  9
$TDUUPDATE
 40
2460108.596550926
  9
$TDINDWG
 40
1.4824739815
  9
$TDUSRTIMER
 40
1.4824739815
  9
$USRTIMER
 70
     1
  9
$ANGBASE
 50
0.0
  9
$ANGDIR
 70
     0
  9
$PDMODE
 70
     3
  9
$PDSIZE
 40
0.3125
  9
$PLINEWID
 40
0.0
  9
$SPLFRAME
 70
     0
  9
$SPLINETYPE
 70
     6
  9
$SPLINESEGS
 70
     8
  9
$HANDSEED
  5
E28
  9
$SURFTAB1
 70
     6
  9
$SURFTAB2
 70
     6
  9
$SURFTYPE
 70
     6
  9
$SURFU
 70
     6
  9
$SURFV
 70
     6
  9
$UCSBASE
  2

  9
$UCSNAME
  2

  9
$UCSORG
 10
0.0
 20
0.0
 30
0.0
  9
$UCSXDIR
 10
1.0
 20
0.0
 30
0.0
  9
$UCSYDIR
 10
0.0
 20
1.0
 30
0.0
  9
$UCSORTHOREF
  2

  9
$UCSORTHOVIEW
 70
     0
  9
$UCSORGTOP
 10
0.0
 20
0.0
 30
0.0
  9
$UCSORGBOTTOM
 10
0.0
 20
0.0
 30
0.0
  9
$UCSORGLEFT
 10
0.0
 20
0.0
 30
0.0
  9
$UCSORGRIGHT
 10
0.0
 20
0.0
 30
0.0
  9
$UCSORGFRONT
 10
0.0
 20
0.0
 30
0.0
  9
$UCSORGBACK
 10
0.0
 20
0.0
 30
0.0
  9
$PUCSBASE
  2

  9
$PUCSNAME
  2

  9
$PUCSORG
 10
0.0
 20
0.0
 30
0.0
  9
$PUCSXDIR
 10
1.0
 20
0.0
 30
0.0
  9
$PUCSYDIR
 10
0.0
 20
1.0
 30
0.0
  9
$PUCSORTHOREF
  2

  9
$PUCSORTHOVIEW
 70
     0
  9
$PUCSORGTOP
 10
0.0
 20
0.0
 30
0.0
  9
$PUCSORGBOTTOM
 10
0.0
 20
0.0
 30
0.0
  9
$PUCSORGLEFT
 10
0.0
 20
0.0
 30
0.0
  9
$PUCSORGRIGHT
 10
0.0
 20
0.0
 30
0.0
  9
$PUCSORGFRONT
 10
0.0
 20
0.0
 30
0.0
  9
$PUCSORGBACK
 10
0.0
 20
0.0
 30
0.0
  9
$USERI1
 70
     0
  9
$USERI2
 70
     0
  9
$USERI3
 70
     0
  9
$USERI4
 70
     0
  9
$USERI5
 70
     0
  9
$USERR1
 40
0.0
  9
$USERR2
 40
0.0
  9
$USERR3
 40
0.0
  9
$USERR4
 40
0.0
  9
$USERR5
 40
0.0
  9
$WORLDVIEW
 70
     1
  9
$SHADEDGE
 70
     3
  9
$SHADEDIF
 70
    70
  9
$TILEMODE
 70
     1
  9
$MAXACTVP
 70
    64
  9
$PINSBASE
 10
0.0
 20
0.0
 30
0.0
  9
$PLIMCHECK
 70
     0
  9
$PEXTMIN
 10
1.000000000000000E+20
 20
1.000000000000000E+20
 30
1.000000000000000E+20
  9
$PEXTMAX
 10
-1.000000000000000E+20
 20
-1.000000000000000E+20
 30
-1.000000000000000E+20
  9
$PLIMMIN
 10
0.0
 20
0.0
  9
$PLIMMAX
 10
12.0
 20
9.0
  9
$UNITMODE
 70
     0
  9
$VISRETAIN
 70
     1
  9
$PLINEGEN
 70
     0
  9
$PSLTSCALE
 70
     1
  9
$TREEDEPTH
 70
  3020
  9
$CMLSTYLE
  2
Standard
  9
$CMLJUST
 70
     0
  9
$CMLSCALE
 40
1.0
  9
$PROXYGRAPHICS
 70
     1
  9
$MEASUREMENT
 70
     0
  9
$CELWEIGHT
370
    -1
  9
$ENDCAPS
280
     0
  9
$JOINSTYLE
280
     0
  9
$LWDISPLAY
290
     0
  9
$INSUNITS
 70
     1
  9
$HYPERLINKBASE
  1

  9
$STYLESHEET
  1
critical dim color.ctb
  9
$XEDIT
290
     1
  9
$CEPSNTYPE
380
     0
  9
$PSTYLEMODE
290
     1
  9
$FINGERPRINTGUID
  2
{144D6515-099F-47A4-901B-2B2E4618D494}
  9
$VERSIONGUID
  2
{A9237A78-A99B-F844-A706-63C56C124114}
  9
$EXTNAMES
290
     1
  9
$PSVPSCALE
 40
0.0
  9
$OLESTARTUP
290
     0
  9
$SORTENTS
280
   127
  9
$INDEXCTL
280
     0
  9
$HIDETEXT
280
     1
  9
$XCLIPFRAME
280
     2
  9
$HALOGAP
280
     0
  9
$OBSCOLOR
 70
   257
  9
$OBSLTYPE
280
     0
  9
$INTERSECTIONDISPLAY
280
     0
  9
$INTERSECTIONCOLOR
 70
   257
  9
$DIMASSOC
280
     2
  9
$PROJECTNAME
  1

  9
$CAMERADISPLAY
290
     0
  9
$LENSLENGTH
 40
50.0
  9
$CAMERAHEIGHT
 40
0.0
  9
$STEPSPERSEC
 40
2.0
  9
$STEPSIZE
 40
6.0
  9
$3DDWFPREC
 40
2.0
  9
$PSOLWIDTH
 40
0.25
  9
$PSOLHEIGHT
 40
4.0
  9
$LOFTANG1
 40
1.570796326794896
  9
$LOFTANG2
 40
1.570796326794896
  9
$LOFTMAG1
 40
0.0
  9
$LOFTMAG2
 40
0.0
  9
$LOFTPARAM
 70
     7
  9
$LOFTNORMALS
280
     1
  9
$LATITUDE
 40
37.795
  9
$LONGITUDE
 40
-122.394
  9
$NORTHDIRECTION
 40
0.0
  9
$TIMEZONE
 70
 -8000
  9
$LIGHTGLYPHDISPLAY
280
     1
  9
$TILEMODELIGHTSYNCH
280
     1
  9
$CMATERIAL
347
457
  9
$SOLIDHIST
280
     1
  9
$SHOWHIST
280
     1
  9
$DWFFRAME
280
     2
  9
$DGNFRAME
280
     0
  9
$REALWORLDSCALE
290
     1
  9
$INTERFERECOLOR
 62
     1
  9
$INTERFEREOBJVS
345
479
  9
$INTERFEREVPVS
346
4DB
  9
$CSHADOW
280
     0
  9
$SHADOWPLANELOCATION
 40
0.0
  0
ENDSEC
  0
SECTION
  2
CLASSES
  0
CLASS
  1
ACDBDICTIONARYWDFLT
  2
AcDbDictionaryWithDefault
  3
ObjectDBX Classes
 90
        0
 91
        1
280
     0
281
     0
  0
CLASS
  1
MATERIAL
  2
AcDbMaterial
  3
ObjectDBX Classes
 90
     1153
 91
        3
280
     0
281
     0
  0
CLASS
  1
VISUALSTYLE
  2
AcDbVisualStyle
  3
ObjectDBX Classes
 90
     4095
 91
       26
280
     0
281
     0
  0
CLASS
  1
TABLESTYLE
  2
AcDbTableStyle
  3
ObjectDBX Classes
 90
     4095
 91
        1
280
     0
281
     0
  0
CLASS
  1
SCALE
  2
AcDbScale
  3
ObjectDBX Classes
 90
     1153
 91
       33
280
     0
281
     0
  0
CLASS
  1
MLEADERSTYLE
  2
AcDbMLeaderStyle
  3
ACDB_MLEADERSTYLE_CLASS
 90
     4095
 91
        1
280
     0
281
     0
  0
CLASS
  1
CELLSTYLEMAP
  2
AcDbCellStyleMap
  3
ObjectDBX Classes
 90
     1152
 91
        1
280
     0
281
     0
  0
CLASS
  1
DICTIONARYVAR
  2
AcDbDictionaryVar
  3
ObjectDBX Classes
 90
        0
 91
        5
280
     0
281
     0
  0
CLASS
  1
ACDBSECTIONVIEWSTYLE
  2
AcDbSectionViewStyle
  3
ObjectDBX Classes
 90
     1025
 91
        2
280
     0
281
     0
  0
CLASS
  1
ACDBDETAILVIEWSTYLE
  2
AcDbDetailViewStyle
  3
ObjectDBX Classes
 90
     1025
 91
        2
280
     0
281
     0
  0
CLASS
  1
SORTENTSTABLE
  2
AcDbSortentsTable
  3
ObjectDBX Classes
 90
        0
 91
        2
280
     0
281
     0
  0
CLASS
  1
SOLID_BACKGROUND
  2
AcDbSolidBackground
  3
SCENEOE
 90
     4095
 91
        0
280
     0
281
     0
  0
CLASS
  1
NPOCOLLECTION
  2
AcDbImpNonPersistentObjectsCollection
  3
ObjectDBX Classes
 90
     1153
 91
        0
280
     0
281
     0
  0
CLASS
  1
DIMASSOC
  2
AcDbDimAssoc
  3
"AcDbDimAssoc|Product Desc:     AcDim ARX App For Dimension|Company:          Autodesk, Inc.|WEB Address:      www.autodesk.com"
 90
        0
 91
        5
280
     0
281
     0
  0
CLASS
  1
ACME_DOCUMENT
  2
AcMeDbDoc
  3
AcMeServices
 90
     1024
 91
        2
280
     0
281
     0
  0
CLASS
  1
AMGSETTINGSOBJ
  2
AmgSettingsObj
  3
"AcadM|Product Description: AutoCAD Mechanical|Company: Autodesk, Inc."
 90
     1024
 91
        2
280
     0
281
     0
  0
CLASS
  1
ACMESCOPE
  2
AcMeScope
  3
AcMeServices
 90
     1024
 91
        1
280
     0
281
     0
  0
CLASS
  1
ACMECOMMANDHISTORY
  2
AcMeCommandHistory
  3
AcMeServices
 90
     1024
 91
        1
280
     0
281
     0
  0
CLASS
  1
ACIMSYSVARMAN
  2
AcImSysVarManager
  3
AcMeServices
 90
     1024
 91
        3
280
     0
281
     0
  0
CLASS
  1
ACIMINTSYSVAR
  2
AcImIntSysVar
  3
AcMeServices
 90
     1024
 91
        2
280
     0
281
     0
  0
CLASS
  1
ACMESTATEMGR
  2
AcMeStateMgr
  3
AcMeServices
 90
     1024
 91
        1
280
     0
281
     0
  0
CLASS
  1
ACDBENTITYCACHE
  2
AcMeEntityCache
  3
AcMeServices
 90
     1024
 91
        1
280
     0
281
     0
  0
CLASS
  1
ACGREFMASTER
  2
AcGrefMaster
  3
AcAttribServices
 90
     1024
 91
        1
280
     0
281
     0
  0
CLASS
  1
ACME_DATABASE
  2
AcMeDbDatabase
  3
AcMeServices
 90
     1024
 91
        1
280
     0
281
     0
  0
CLASS
  1
ACRFINSADJUSTERMGR
  2
AcRfInsAdjusterMgr
  3
AcMeServices
 90
     1024
 91
        1
280
     0
281
     0
  0
CLASS
  1
ACGREFACADMASTER
  2
AcGrefacadMaster
  3
AcGrefServices
 90
     1024
 91
        1
280
     0
281
     0
  0
CLASS
  1
AMIMASTER
  2
AmiMaster
  3
AmiServices
 90
     1024
 91
        1
280
     0
281
     0
  0
CLASS
  1
AMDTMENUSTATEMGR
  2
AmdtMenuStateMgr
  3
McadcomServices
 90
     1024
 91
        1
280
     0
281
     0
  0
CLASS
  1
AMDTMCOMMENUSTATE
  2
AmdtMcomMenuState
  3
McadcomServices
 90
     1024
 91
        1
280
     0
281
     0
  0
CLASS
  1
MAPIAMMOUDLE
  2
MApiAmModule
  3
MApiAmServices
 90
     1024
 91
        1
280
     0
281
     0
  0
CLASS
  1
ACIMSTRSYSVAR
  2
AcImStrSysVar
  3
AcMeServices
 90
     1024
 91
        5
280
     0
281
     0
  0
CLASS
  1
AMDTAMMENUSTATE
  2
AmdtAmMenuState
  3
DesignerAssemblies_arx
 90
     1024
 91
        1
280
     0
281
     0
  0
CLASS
  1
ACAMPROJECT
  2
AcAmProject
  3
DesignerAssemblies
 90
     1024
 91
        1
280
     0
281
     0
  0
CLASS
  1
ACAMGRCOMPDEF
  2
AcAmGrCompDef
  3
DesignerAssemblies
 90
     1024
 91
        1
280
     0
281
     0
  0
CLASS
  1
ACAMCOMPDEF
  2
AcAmCompDef
  3
DesignerAssemblies
 90
     1024
 91
        1
280
     0
281
     0
  0
CLASS
  1
ACAMCOMPDEFMGR
  2
AcAmCompDefMgr
  3
DesignerAssemblies
 90
     1024
 91
        1
280
     0
281
     0
  0
CLASS
  1
AMCONTEXTMGR
  2
AcAmContextMgr
  3
DesignerAssemblies
 90
     1024
 91
        1
280
     0
281
     0
  0
CLASS
  1
ACAMCONTEXTMODELER
  2
AcAmContextModeler
  3
DesignerAssemblies
 90
     1024
 91
        1
280
     0
281
     0
  0
CLASS
  1
ACMDATADICTIONARY
  2
AcmDataDictionary
  3
"AcmSymBB|Product Description: AutoCAD Mechanical|Company: Autodesk, Inc."
 90
     1024
 91
        1
280
     0
281
     0
  0
CLASS
  1
ACAMGRCOMPDEFSET
  2
AcAmGrCompDefSet
  3
DesignerAssemblies
 90
     1024
 91
        1
280
     0
281
     0
  0
CLASS
  1
AMDTBROWSERDBTAB
  2
AmdtBrowserDbTab
  3
McadcomServices
 90
     1024
 91
        1
280
     0
281
     0
  0
CLASS
  1
CBROWSERAPPOBJECT
  2
CBrowserAppObject
  3
McadcomServices
 90
     1024
 91
        2
280
     0
281
     0
  0
CLASS
  1
DM_PLACEHOLDER
  2
AcDmSelsetPlaceholder
  3
McadcomServices
 90
     1024
 91
        1
280
     0
281
     0
  0
CLASS
  1
ACMSTANDARDANSI
  2
AcmStandardANSI
  3
"Amdt_StdImp|Product Description: AutoCAD Mechanical|Company: Autodesk, Inc."
 90
     1024
 91
        1
280
     0
281
     0
  0
CLASS
  1
ACMSURFSTANDARDANSI
  2
AcmSurfTextStdANSI
  3
"Amdt_StdImp|Product Description: AutoCAD Mechanical|Company: Autodesk, Inc."
 90
     1024
 91
        1
280
     0
281
     0
  0
CLASS
  1
ACMFCFSTANDARDANSI
  2
AcmFCFStdANSI
  3
"Amdt_StdImp|Product Description: AutoCAD Mechanical|Company: Autodesk, Inc."
 90
     1024
 91
        1
280
     0
281
     0
  0
CLASS
  1
ACMWELDSTANDARDANSI
  2
AcmWeldingStdANSI
  3
"Amdt_StdImp|Product Description: AutoCAD Mechanical|Company: Autodesk, Inc."
 90
     1024
 91
        1
280
     0
281
     0
  0
CLASS
  1
ACMIDSTANDARDANSI
  2
AcmIdStdANSI
  3
"Amdt_StdImp|Product Description: AutoCAD Mechanical|Company: Autodesk, Inc."
 90
     1024
 91
        1
280
     0
281
     0
  0
CLASS
  1
ACMDATUMSTANDARDANSI
  2
AcmDatumStdANSI
  3
"Amdt_StdImp|Product Description: AutoCAD Mechanical|Company: Autodesk, Inc."
 90
     1024
 91
        1
280
     0
281
     0
  0
CLASS
  1
ACMBOMSTANDARDANSI
  2
AcmBOMStdANSI
  3
"Amdt_StdImp|Product Description: AutoCAD Mechanical|Company: Autodesk, Inc."
 90
     1024
 91
        1
280
     0
281
     0
  0
CLASS
  1
ACMDETAILSTANDARDANSI
  2
AmdtDetailSymStdANSI
  3
"Amdt_StdImp|Product Description: AutoCAD Mechanical|Company: Autodesk, Inc."
 90
     1024
 91
        1
280
     0
281
     0
  0
CLASS
  1
ACMSECTIONSTANDARDANSI
  2
AmdtSectionSymStdANSI
  3
"Amdt_StdImp|Product Description: AutoCAD Mechanical|Company: Autodesk, Inc."
 90
     1024
 91
        1
280
     0
281
     0
  0
CLASS
  1
ACMCENTERLINESTANDARDANSI
  2
AmdtCenterLineStdANSI
  3
"Amdt_StdImp|Product Description: AutoCAD Mechanical|Company: Autodesk, Inc."
 90
     1024
 91
        1
280
     0
281
     0
  0
CLASS
  1
ACMTHREADLINESTANDARDANSI
  2
AmdtThreadLineStdANSI
  3
"Amdt_StdImp|Product Description: AutoCAD Mechanical|Company: Autodesk, Inc."
 90
     1024
 91
        1
280
     0
281
     0
  0
CLASS
  1
ACMNOTESTANDARDANSI
  2
AmdtNoteStdANSI
  3
"Amdt_StdImp|Product Description: AutoCAD Mechanical|Company: Autodesk, Inc."
 90
     1024
 91
        1
280
     0
281
     0
  0
CLASS
  1
ACMTAPERSTANDARDANSI
  2
AcmTaperStdANSI
  3
"Amdt_StdImp|Product Description: AutoCAD Mechanical|Company: Autodesk, Inc."
 90
     1024
 91
        1
280
     0
281
     0
  0
CLASS
  1
ACMANOOTATIONVIEWSTANDARDANSI
  2
AmdtAnViewStdANSI
  3
"Amdt_StdImp|Product Description: AutoCAD Mechanical|Company: Autodesk, Inc."
 90
     1024
 91
        1
280
     0
281
     0
  0
CLASS
  1
ACAMGLAYSTD
  2
AcAmgLayStd
  3
"AmgLay|Product Description: AutoCAD Mechanical|Company: Autodesk, Inc."
 90
     1024
 91
        1
280
     0
281
     0
  0
CLASS
  1
ACAMGDIMSTD
  2
AcAmgDimStd
  3
"AmgDim|Product Description: AutoCAD Mechanical|Company: Autodesk, Inc."
 90
     1024
 91
        1
280
     0
281
     0
  0
CLASS
  1
ACAMGHOLECHARTSTDANSI
  2
AcAmgHoleChartStdANSI
  3
"AmgDim" "Product Description: AutoCAD Mechanical|Company: Autodesk, Inc."
 90
     1024
 91
        1
280
     0
281
     0
  0
CLASS
  1
AMGOBJPROPCFG
  2
AmgObjPropCfg
  3
"AmgLay|Product Description: AutoCAD Mechanical|Company: Autodesk, Inc."
 90
     1024
 91
        1
280
     0
281
     0
  0
CLASS
  1
ACAMGTITLESTD
  2
AcAmgTitleStd
  3
"AmgTitle|Product Description: AutoCAD Mechanical|Company: Autodesk, Inc."
 90
     1024
 91
        1
280
     0
281
     0
  0
CLASS
  1
ACMSECTIONSTANDARDCUSTOM
  2
AmdtSectionSymStdCustom
  3
"Amdt_StdImp|Product Description: AutoCAD Mechanical|Company: Autodesk, Inc."
 90
     1024
 91
        1
280
     0
281
     0
  0
CLASS
  1
ACMDETAILTANDARDCUSTOM
  2
AmdtDetailSymStdCustom
  3
"Amdt_StdImp|Product Description: AutoCAD Mechanical|Company: Autodesk, Inc."
 90
     1024
 91
        1
280
     0
281
     0
  0
CLASS
  1
FIELD
  2
AcDbField
  3
ObjectDBX Classes
 90
     1152
 91
        4
280
     0
281
     0
  0
CLASS
  1
FIELDLIST
  2
AcDbFieldList
  3
ObjectDBX Classes
 90
     1152
 91
        1
280
     0
281
     0
  0
CLASS
  1
AMDTNOTETEMPLATEDB
  2
AmdtNoteTemplateDB
  3
"AcmSymBB" "Product Description: AutoCAD Mechanical|Company: Autodesk, Inc."
 90
     1024
 91
        7
280
     0
281
     0
  0
ENDSEC
  0
SECTION
  2
TABLES
  0
TABLE
  2
VPORT
  5
8
330
0
100
AcDbSymbolTable
 70
     1
1001
ACAD
1000
DbSaveVer
1071
       51
  0
VPORT
  5
1F4
330
8
100
AcDbSymbolTableRecord
100
AcDbViewportTableRecord
  2
*ACTIVE
 70
     0
 10
0.0
 20
0.0
 11
1.0
 21
1.0
 12
14.12789484205076
 22
12.94377635677272
 13
0.0
 23
0.0
 14
1.0
 24
1.0
 15
0.0
 25
0.0
 16
0.0
 26
0.0
 36
1.0
 17
0.0
 27
0.0
 37
0.0
 40
21.13929489900919
 41
2.066666666666666
 42
50.0
 43
0.0
 44
0.0
 50
0.0
 51
0.0
 71
     0
 72
   100
 73
     1
 74
     1
 75
     0
 76
     0
 77
     0
 78
     0
281
     0
 65
     1
110
0.0
120
0.0
130
0.0
111
1.0
121
0.0
131
0.0
112
0.0
122
1.0
132
0.0
 79
     0
146
0.0
348
475
 60
     3
 61
     5
292
     1
282
     1
141
0.0
142
0.0
 63
   250
421
  3355443
1001
ACAD_NAV_VCDISPLAY
1070
     3
  0
ENDTAB
  0
TABLE
  2
LTYPE
  5
5
330
0
100
AcDbSymbolTable
 70
    18
  0
LTYPE
  5
14
330
5
100
AcDbSymbolTableRecord
100
AcDbLinetypeTableRecord
  2
BYBLOCK
 70
     0
  3

 72
    65
 73
     0
 40
0.0
  0
LTYPE
  5
15
330
5
100
AcDbSymbolTableRecord
100
AcDbLinetypeTableRecord
  2
BYLAYER
 70
     0
  3

 72
    65
 73
     0
 40
0.0
  0
LTYPE
  5
16
330
5
100
AcDbSymbolTableRecord
100
AcDbLinetypeTableRecord
  2
CONTINUOUS
 70
     0
  3
Solid line
 72
    65
 73
     0
 40
0.0
  0
LTYPE
  5
1F5
330
5
100
AcDbSymbolTableRecord
100
AcDbLinetypeTableRecord
  2
CENTER
 70
     0
  3
____ _ ____ _ ____ _ ____ _ ____ _ ____ _ ____
 72
    65
 73
     4
 40
0.6
 49
0.375
 74
     0
 49
-0.075
 74
     0
 49
0.075
 74
     0
 49
-0.075
 74
     0
  0
LTYPE
  5
1F6
330
5
100
AcDbSymbolTableRecord
100
AcDbLinetypeTableRecord
  2
HIDDEN
 70
     0
  3
- - - - - - - - - - - - - - - - - - - -
 72
    65
 73
     2
 40
0.2
 49
0.1
 74
     0
 49
-0.1
 74
     0
  0
LTYPE
  5
1F7
330
5
100
AcDbSymbolTableRecord
100
AcDbLinetypeTableRecord
  2
PHANTOM
 70
     0
  3
_____ _ _ _____ _ _ _____ _ _ _____
 72
    65
 73
     6
 40
0.8
 49
0.45
 74
     0
 49
-0.05
 74
     0
 49
0.1
 74
     0
 49
-0.05
 74
     0
 49
0.1
 74
     0
 49
-0.05
 74
     0
  0
LTYPE
  5
1F9
330
5
100
AcDbSymbolTableRecord
100
AcDbLinetypeTableRecord
  2
DASHED
 70
     0
  3
- - - - - - - - - - - - - - - - - - - -
 72
    65
 73
     2
 40
0.2
 49
0.1
 74
     0
 49
-0.1
 74
     0
  0
LTYPE
  5
7BA
330
5
100
AcDbSymbolTableRecord
100
AcDbLinetypeTableRecord
  2
CENTER2
 70
     0
  3
___ _ ___ _ ___ _ ___ _ ___ _ ___ _ ___ _ ___ _
 72
    65
 73
     4
 40
1.125
 49
0.75
 74
     0
 49
-0.125
 74
     0
 49
0.125
 74
     0
 49
-0.125
 74
     0
  0
LTYPE
  5
7BB
330
5
100
AcDbSymbolTableRecord
100
AcDbLinetypeTableRecord
  2
HIDDEN2
 70
     0
  3
_ _ _ _ _ _ _ _ _ _ _ _ _ _ _ _ _ _ _ _ _ _ _ _
 72
    65
 73
     2
 40
0.1875
 49
0.125
 74
     0
 49
-0.0625
 74
     0
  0
LTYPE
  5
7BC
330
5
100
AcDbSymbolTableRecord
100
AcDbLinetypeTableRecord
  2
PHANTOM2
 70
     0
  3
Phantom (.5x) ___ _ _ ___ _ _ ___ _ _ ___ _ _
 72
    65
 73
     6
 40
1.25
 49
0.625
 74
     0
 49
-0.125
 74
     0
 49
0.125
 74
     0
 49
-0.125
 74
     0
 49
0.125
 74
     0
 49
-0.125
 74
     0
  0
LTYPE
  5
7BD
330
5
100
AcDbSymbolTableRecord
100
AcDbLinetypeTableRecord
  2
Amconstr
 70
     0
  3
_______________________
 72
    65
 73
     2
 40
9999.0
 49
9999.0
 74
     0
 49
0.0
 74
     0
  0
LTYPE
  5
7BE
330
5
100
AcDbSymbolTableRecord
100
AcDbLinetypeTableRecord
  2
Amzigzag2
 70
     0
  3
/\/-/\/-/\/-/\/-/\/-/\/
 72
    65
 73
     2
 40
0.4401
 49
0.0001
 74
     4
 75
   136
340
7CB
 46
0.0016
 50
0.0
 44
0.0
 45
0.0
 49
-0.4400000000000001
 74
     0
  0
LTYPE
  5
7BF
330
5
100
AcDbSymbolTableRecord
100
AcDbLinetypeTableRecord
  2
ACANSTGB
 70
     0
  3
__ . . __ . .
 72
    65
 73
     6
 40
0.35433070866
 49
0.15748031496
 74
     0
 49
-0.03937007874
 74
     0
 49
0.03937007874
 74
     0
 49
-0.03937007874
 74
     0
 49
0.03937007874
 74
     0
 49
-0.03937007874
 74
     0
  0
LTYPE
  5
7C0
330
5
100
AcDbSymbolTableRecord
100
AcDbLinetypeTableRecord
  2
ACANSTGL
 70
     0
  3
_ _ _ _ _
 72
    65
 73
     2
 40
0.11811023622
 49
0.07874015748
 74
     0
 49
-0.03937007874
 74
     0
  0
LTYPE
  5
DFA
330
5
100
AcDbSymbolTableRecord
100
AcDbLinetypeTableRecord
  2
AM_ISO02W050
 70
     0
  3
__ __ __ __ __ __ __ __ __ __ __ __ __ __ __
 72
    65
 73
     2
 40
7.5
 49
6.0
 74
     0
 49
-1.5
 74
     0
  0
LTYPE
  5
DFB
330
5
100
AcDbSymbolTableRecord
100
AcDbLinetypeTableRecord
  2
AM_ISO08W050
 70
     0
  3
____ . ____ . ____ . ____ . ____ . ____ . ____
 72
    65
 73
     4
 40
18.0
 49
12.0
 74
     0
 49
-1.5
 74
     0
 49
3.0
 74
     0
 49
-1.5
 74
     0
  0
LTYPE
  5
DFC
330
5
100
AcDbSymbolTableRecord
100
AcDbLinetypeTableRecord
  2
AM_ISO09W050
 70
     0
  3
_____ . . _____ . . _____ . . ____ .. ____
 72
    65
 73
     6
 40
22.5
 49
12.0
 74
     0
 49
-1.5
 74
     0
 49
3.0
 74
     0
 49
-1.5
 74
     0
 49
3.0
 74
     0
 49
-1.5
 74
     0
  0
LTYPE
  5
DFD
330
5
100
AcDbSymbolTableRecord
100
AcDbLinetypeTableRecord
  2
AM_ISO08W050x2
 70
     0
  3
__ . __ . __ . __ . __ . __
 72
    65
 73
     4
 40
9.0
 49
6.0
 74
     0
 49
-0.75
 74
     0
 49
1.5
 74
     0
 49
-0.75
 74
     0
  0
LTYPE
  5
DFE
330
5
100
AcDbSymbolTableRecord
100
AcDbLinetypeTableRecord
  2
AM_ISO02W050x2
 70
     0
  3
 _ _ _ _ _ _ _ _ _ _ _ _
 72
    65
 73
     2
 40
3.75
 49
3.0
 74
     0
 49
-0.75
 74
     0
  0
LTYPE
  5
DFF
330
5
100
AcDbSymbolTableRecord
100
AcDbLinetypeTableRecord
  2
Amzigzag
 70
     0
  3
/\/-/\/-/\/-/\/-/\/-/\/
 72
    65
 73
     2
 40
11.0001
 49
0.0001
 74
     4
 75
   136
340
7CB
 46
0.04
 50
0.0
 44
0.0
 45
0.0
 49
-11.0
 74
     0
  0
ENDTAB
  0
TABLE
  2
LAYER
  5
2
102
{ACAD_XDICTIONARY
360
4F4
102
}
330
0
100
AcDbSymbolTable
 70
    11
  0
LAYER
  5
10
330
2
100
AcDbSymbolTableRecord
100
AcDbLayerTableRecord
  2
0
 70
     0
 62
     7
  6
CONTINUOUS
370
    -3
390
F
347
467
348
0
  0
LAYER
  5
1FD
330
2
100
AcDbSymbolTableRecord
100
AcDbLayerTableRecord
  2
AXIS
 70
     0
 62
     7
  6
CONTINUOUS
370
    -3
390
F
347
467
348
0
  0
LAYER
  5
502
330
2
100
AcDbSymbolTableRecord
100
AcDbLayerTableRecord
  2
CENTER
 70
     0
 62
   140
  6
CENTER
370
    -3
390
F
347
467
348
0
1001
AcAecLayerStandard
1000

1000

1001
AcCmTransparency
1071
        0
  0
LAYER
  5
62C
330
2
100
AcDbSymbolTableRecord
100
AcDbLayerTableRecord
  2
DIMS
 70
     0
 62
     1
  6
CONTINUOUS
370
    -3
390
F
347
467
348
0
1001
AcAecLayerStandard
1000

1000

1001
AcCmTransparency
1071
        0
  0
LAYER
  5
639
330
2
100
AcDbSymbolTableRecord
100
AcDbLayerTableRecord
  2
Defpoints
 70
     0
 62
     7
  6
CONTINUOUS
290
     0
370
    -3
390
F
347
467
348
0
  0
LAYER
  5
7C1
102
{ACAD_XDICTIONARY
360
7C2
102
}
330
2
100
AcDbSymbolTableRecord
100
AcDbLayerTableRecord
  2
BORDER TEXT
 70
     0
 62
     2
  6
CONTINUOUS
370
    -3
390
F
347
467
348
0
  0
LAYER
  5
7C3
102
{ACAD_XDICTIONARY
360
7C4
102
}
330
2
100
AcDbSymbolTableRecord
100
AcDbLayerTableRecord
  2
BORDER
 70
     0
 62
     5
  6
CONTINUOUS
370
    -3
390
F
347
467
348
0
  0
LAYER
  5
7C5
102
{ACAD_XDICTIONARY
360
7C6
102
}
330
2
100
AcDbSymbolTableRecord
100
AcDbLayerTableRecord
  2
ATTRIBUTES
 70
     0
 62
     7
  6
CONTINUOUS
370
    -3
390
F
347
467
348
0
  0
LAYER
  5
7C7
102
{ACAD_XDICTIONARY
360
7C8
102
}
330
2
100
AcDbSymbolTableRecord
100
AcDbLayerTableRecord
  2
CONTROLLED STAMP
 70
     0
 62
   130
  6
CONTINUOUS
370
    -3
390
F
347
467
348
0
1001
AcAecLayerStandard
1000

1000

  0
LAYER
  5
7C9
102
{ACAD_XDICTIONARY
360
7CA
102
}
330
2
100
AcDbSymbolTableRecord
100
AcDbLayerTableRecord
  2
OUTER BORDER
 70
     0
 62
     3
  6
CONTINUOUS
290
     0
370
    -3
390
F
347
467
348
0
1001
AcAecLayerStandard
1000

1000

  0
LAYER
  5
9C0
102
{ACAD_XDICTIONARY
360
9C1
102
}
330
2
100
AcDbSymbolTableRecord
100
AcDbLayerTableRecord
  2
BORDER2
 70
     0
 62
     2
  6
CONTINUOUS
370
    -3
390
F
347
467
348
0
  0
ENDTAB
  0
TABLE
  2
STYLE
  5
3
330
0
100
AcDbSymbolTable
 70
    11
  0
STYLE
  5
11
330
3
100
AcDbSymbolTableRecord
100
AcDbTextStyleTableRecord
  2
STANDARD
 70
     0
 40
0.0
 41
0.8
 50
0.0
 71
     0
 42
0.2
  3
txt
  4

  0
STYLE
  5
205
330
3
100
AcDbSymbolTableRecord
100
AcDbTextStyleTableRecord
  2
TEXTSTYLE_1
 70
     0
 40
0.0
 41
0.8
 50
0.0
 71
     0
 42
0.2
  3
gdt
  4

  0
STYLE
  5
631
330
3
100
AcDbSymbolTableRecord
100
AcDbTextStyleTableRecord
  2
ROMANS
 70
     0
 40
0.0
 41
0.8
 50
0.0
 71
     0
 42
0.2
  3
romans.shx
  4

  0
STYLE
  5
634
330
3
100
AcDbSymbolTableRecord
100
AcDbTextStyleTableRecord
  2
ARIAL_NARROW_BOLD
 70
     0
 40
0.0
 41
1.0
 50
0.0
 71
     0
 42
0.2
  3
ARIALNB.TTF
  4

1001
ACAD
1000
Arial Narrow
1071
 33554466
  0
STYLE
  5
7CB
330
3
100
AcDbSymbolTableRecord
100
AcDbTextStyleTableRecord
  2

 70
     1
 40
0.0
 41
1.0
 50
0.0
 71
     0
 42
0.2
  3
genltshp.shx
  4

  0
STYLE
  5
7CC
330
3
100
AcDbSymbolTableRecord
100
AcDbTextStyleTableRecord
  2
ACANSGDT
 70
     0
 40
0.0
 41
1.0
 50
0.0
 71
     0
 42
0.2
  3
amgdt.shx
  4

  0
STYLE
  5
7CD
330
3
100
AcDbSymbolTableRecord
100
AcDbTextStyleTableRecord
  2
ROMAND
 70
     0
 40
0.08
 41
1.3
 50
0.0
 71
     0
 42
0.08
  3
romand
  4

  0
STYLE
  5
7CE
330
3
100
AcDbSymbolTableRecord
100
AcDbTextStyleTableRecord
  2
Arial Narrow
 70
     0
 40
0.0
 41
1.0
 50
0.0
 71
     0
 42
0.1875
  3
ARIALN.TTF
  4

1001
ACAD
1000
Arial Narrow
1071
       34
  0
STYLE
  5
7CF
330
3
100
AcDbSymbolTableRecord
100
AcDbTextStyleTableRecord
  2
Aial Narrow Bold
 70
     0
 40
0.0
 41
1.0
 50
0.0
 71
     0
 42
0.1875
  3
ARIALNB.TTF
  4

1001
ACAD
1000
Arial Narrow
1071
 33554466
  0
STYLE
  5
A07
330
3
100
AcDbSymbolTableRecord
100
AcDbTextStyleTableRecord
  2
narrow_arial_bold
 70
     0
 40
0.0
 41
1.0
 50
0.0
 71
     0
 42
0.15
  3
ARIALNB.TTF
  4

1001
ACAD
1000
Arial Narrow
1071
 33554466
  0
STYLE
  5
E03
330
3
100
AcDbSymbolTableRecord
100
AcDbTextStyleTableRecord
  2
ACANSTS
 70
     0
 40
0.0
 41
1.0
 50
0.0
 71
     0
 42
0.2
  3
romans.shx
  4

  0
ENDTAB
  0
TABLE
  2
VIEW
  5
6
330
0
100
AcDbSymbolTable
 70
     0
  0
ENDTAB
  0
TABLE
  2
UCS
  5
7
330
0
100
AcDbSymbolTable
 70
     0
  0
ENDTAB
  0
TABLE
  2
APPID
  5
9
330
0
100
AcDbSymbolTable
 70
    18
  0
APPID
  5
206
330
9
100
AcDbSymbolTableRecord
100
AcDbRegAppTableRecord
  2
ACAD
 70
     0
  0
APPID
  5
4D4
330
9
100
AcDbSymbolTableRecord
100
AcDbRegAppTableRecord
  2
ACAD_MLEADERVER
 70
     0
  0
APPID
  5
4FA
330
9
100
AcDbSymbolTableRecord
100
AcDbRegAppTableRecord
  2
ACAD_NAV_VCDISPLAY
 70
     0
  0
APPID
  5
503
330
9
100
AcDbSymbolTableRecord
100
AcDbRegAppTableRecord
  2
AcAecLayerStandard
 70
     0
  0
APPID
  5
504
330
9
100
AcDbSymbolTableRecord
100
AcDbRegAppTableRecord
  2
AcCmTransparency
 70
     0
  0
APPID
  5
62D
330
9
100
AcDbSymbolTableRecord
100
AcDbRegAppTableRecord
  2
ACAD_DSTYLE_DIMJAG
 70
     0
  0
APPID
  5
62E
330
9
100
AcDbSymbolTableRecord
100
AcDbRegAppTableRecord
  2
ACAD_DSTYLE_DIMBREAK
 70
     0
  0
APPID
  5
62F
330
9
100
AcDbSymbolTableRecord
100
AcDbRegAppTableRecord
  2
ACAD_DSTYLE_DIMTALN
 70
     0
  0
APPID
  5
632
330
9
100
AcDbSymbolTableRecord
100
AcDbRegAppTableRecord
  2
AcadAnnoPO
 70
     0
  0
APPID
  5
725
330
9
100
AcDbSymbolTableRecord
100
AcDbRegAppTableRecord
  2
AcadAnnoMonitorAlertIconDisabled
 70
     0
  0
APPID
  5
726
330
9
100
AcDbSymbolTableRecord
100
AcDbRegAppTableRecord
  2
ACAD_EXEMPT_FROM_CAD_STANDARDS
 70
     0
  0
APPID
  5
74E
330
9
100
AcDbSymbolTableRecord
100
AcDbRegAppTableRecord
  2
ACAD_PSEXT
 70
     0
  0
APPID
  5
7DA
330
9
100
AcDbSymbolTableRecord
100
AcDbRegAppTableRecord
  2
ACAD_DSTYLE_DIMJOGGED_JOGANGLE_SYMBOL
 70
     0
  0
APPID
  5
7DB
330
9
100
AcDbSymbolTableRecord
100
AcDbRegAppTableRecord
  2
ACATTRIBSERVICES
 70
     0
  0
APPID
  5
9C2
330
9
100
AcDbSymbolTableRecord
100
AcDbRegAppTableRecord
  2
DCO15
 70
     0
  0
APPID
  5
DBD
330
9
100
AcDbSymbolTableRecord
100
AcDbRegAppTableRecord
  2
MCAD_NO_VIS
 70
     0
  0
APPID
  5
DBE
330
9
100
AcDbSymbolTableRecord
100
AcDbRegAppTableRecord
  2
ACAD_TEMP_GRAPHIC
 70
     0
  0
APPID
  5
DDF
330
9
100
AcDbSymbolTableRecord
100
AcDbRegAppTableRecord
  2
DESIGNERASSEMBLIES
 70
     0
  0
ENDTAB
  0
TABLE
  2
DIMSTYLE
  5
A
330
0
100
AcDbSymbolTable
 70
    13
100
AcDbDimStyleTable
 71
     2
340
630
340
209
  0
DIMSTYLE
105
209
330
A
100
AcDbSymbolTableRecord
100
AcDbDimStyleTableRecord
  2
STANDARD
 70
     0
 41
0.1875
 44
0.125
 47
0.000001
 48
0.000001
 71
     1
 78
     4
 79
     1
140
0.125
171
     5
179
     6
271
     6
272
     6
284
     4
340
11
  0
DIMSTYLE
105
630
102
{ACAD_REACTORS
330
638
330
653
330
66D
330
687
330
6A1
102
}
330
A
100
AcDbSymbolTableRecord
100
AcDbDimStyleTableRecord
  2
3PL
 70
     0
 40
2.0
 41
0.1875
 43
0.8359999999999999
 44
0.09
 47
0.000001
 48
0.000001
 78
     4
 79
     1
140
0.125
141
0.198
176
   256
177
   256
178
   256
271
     1
272
     1
340
634
1001
ACAD_DSTYLE_DIMBREAK
1070
   391
1040
0.125
1001
ACAD_DSTYLE_DIMJAG
1070
   388
1040
1.5
1001
ACAD_DSTYLE_DIMTALN
1070
   392
1070
     0
  0
DIMSTYLE
105
7D0
330
A
100
AcDbSymbolTableRecord
100
AcDbDimStyleTableRecord
  2
6PL
 70
     0
 44
0.09375
 49
0.09
 78
     4
 79
     1
140
0.125
141
0.0
176
   256
177
   256
178
   256
271
     6
272
     6
289
     0
340
631
345
15
346
15
347
15
371
    -1
372
    -1
1001
ACAD_DSTYLE_DIMJOGGED_JOGANGLE_SYMBOL
1070
   384
1040
0.7853981633974483
1001
ACAD_DSTYLE_DIMJAG
1070
   388
1040
1.5
1001
ACAD_DSTYLE_DIMTALN
1070
   392
1070
     0
  0
DIMSTYLE
105
7D1
330
A
100
AcDbSymbolTableRecord
100
AcDbDimStyleTableRecord
  2
ANG
 70
     0
 44
0.09375
 49
0.09
 78
     4
 79
     1
140
0.125
141
0.0
176
   256
177
   256
178
   256
271
     0
272
     0
289
     0
340
631
345
15
346
15
347
15
371
    -1
372
    -1
1001
ACAD_DSTYLE_DIMJOGGED_JOGANGLE_SYMBOL
1070
   384
1040
0.7853981633974483
1001
ACAD_DSTYLE_DIMJAG
1070
   388
1040
1.5
1001
ACAD_DSTYLE_DIMTALN
1070
   392
1070
     0
  0
DIMSTYLE
105
7D2
330
A
100
AcDbSymbolTableRecord
100
AcDbDimStyleTableRecord
  2
ANG±1°
 70
     0
 44
0.09375
 47
1.0
 48
1.0
 49
0.09
 71
     1
 78
     4
 79
     1
140
0.125
141
0.0
176
   256
177
   256
178
   256
271
     0
272
     0
284
     4
289
     0
340
631
345
15
346
15
347
15
371
    -1
372
    -1
1001
ACAD_DSTYLE_DIMJOGGED_JOGANGLE_SYMBOL
1070
   384
1040
0.7853981633974483
1001
ACAD_DSTYLE_DIMJAG
1070
   388
1040
1.5
1001
ACAD_DSTYLE_DIMTALN
1070
   392
1070
     0
  0
DIMSTYLE
105
7D3
102
{ACAD_REACTORS
330
DE8
102
}
330
A
100
AcDbSymbolTableRecord
100
AcDbDimStyleTableRecord
  2
AM_ANSI
 70
     0
  4
mm
 41
0.12
 42
0.05
 43
0.5
 44
0.1
 47
0.1
 48
0.1
 78
     7
 79
     2
 90
     1
140
0.12
141
0.0
146
0.71
147
0.06
176
   256
177
   256
178
   256
284
     7
340
631
345
15
346
15
347
15
371
    -1
372
    -1
1001
ACAD_DSTYLE_DIMBREAK
1070
   391
1040
0.125
1001
ACAD_DSTYLE_DIMJAG
1070
   388
1040
1.5
1001
ACAD_DSTYLE_DIMTALN
1070
   392
1070
     0
  0
DIMSTYLE
105
7D4
330
A
100
AcDbSymbolTableRecord
100
AcDbDimStyleTableRecord
  2
AM_ANSI$3
 70
     0
  4
mm
 41
0.12
 42
0.05
 43
0.5
 44
0.1
 47
0.1
 48
0.1
 78
     7
 79
     2
 90
     1
140
0.12
141
0.0
146
0.71
147
0.06
176
   256
177
   256
178
   256
284
     7
288
     1
289
     0
340
631
345
15
346
15
347
15
371
    -1
372
    -1
1001
ACAD_DSTYLE_DIMBREAK
1070
   391
1040
0.125
1001
ACAD_DSTYLE_DIMJAG
1070
   388
1040
1.5
1001
ACAD_DSTYLE_DIMTALN
1070
   392
1070
     0
  0
DIMSTYLE
105
7D5
330
A
100
AcDbSymbolTableRecord
100
AcDbDimStyleTableRecord
  2
AM_ANSI$4
 70
     0
  4
mm
 41
0.12
 42
0.05
 43
0.5
 44
0.1
 47
0.1
 48
0.1
 78
     7
 79
     2
 90
     1
140
0.12
141
0.0
146
0.71
147
0.06
176
   256
177
   256
178
   256
284
     7
288
     1
289
     0
340
631
345
15
346
15
347
15
371
    -1
372
    -1
1001
ACAD_DSTYLE_DIMBREAK
1070
   391
1040
0.125
1001
ACAD_DSTYLE_DIMJAG
1070
   388
1040
1.5
1001
ACAD_DSTYLE_DIMTALN
1070
   392
1070
     0
  0
DIMSTYLE
105
7D6
330
A
100
AcDbSymbolTableRecord
100
AcDbDimStyleTableRecord
  2
AM_ANSI$7
 70
     0
  4
mm
 41
0.12
 42
0.05
 43
0.5
 44
0.1
 47
0.1
 48
0.1
 78
     7
 79
     2
 90
     1
140
0.12
141
0.0
146
0.71
147
0.06
176
   256
177
   256
178
   256
284
     7
340
631
345
15
346
15
347
15
371
    -1
372
    -1
1001
ACAD_DSTYLE_DIMBREAK
1070
   391
1040
0.125
1001
ACAD_DSTYLE_DIMJAG
1070
   388
1040
1.5
1001
ACAD_DSTYLE_DIMTALN
1070
   392
1070
     0
  0
DIMSTYLE
105
7D7
330
A
100
AcDbSymbolTableRecord
100
AcDbDimStyleTableRecord
  2
AM_ANSI$SF
 70
     0
  4
mm
 41
0.12
 42
0.05
 43
0.5
 44
0.1
 47
0.1
 48
0.1
 75
     1
 76
     1
 78
     7
 79
     2
 90
     1
140
0.12
141
0.0
146
0.71
147
0.06
176
   256
177
   256
178
   256
284
     7
340
631
345
15
346
15
347
15
371
    -1
372
    -1
1001
ACAD_DSTYLE_DIMBREAK
1070
   391
1040
0.125
1001
ACAD_DSTYLE_DIMJAG
1070
   388
1040
1.5
1001
ACAD_DSTYLE_DIMTALN
1070
   392
1070
     0
  0
DIMSTYLE
105
7D8
330
A
100
AcDbSymbolTableRecord
100
AcDbDimStyleTableRecord
  2
AM_ANSI$SH
 70
     0
  4
mm
 41
0.12
 42
0.05
 43
0.5
 44
0.1
 47
0.1
 48
0.1
 75
     1
 76
     1
 78
     7
 79
     2
 90
     1
140
0.12
141
0.0
146
0.71
147
0.06
176
   256
177
   256
178
   256
284
     7
340
631
343
7B6
345
15
346
15
347
15
371
    -1
372
    -1
1001
ACAD_DSTYLE_DIMBREAK
1070
   391
1040
0.125
1001
ACAD_DSTYLE_DIMJAG
1070
   388
1040
1.5
1001
ACAD_DSTYLE_DIMTALN
1070
   392
1070
     0
  0
DIMSTYLE
105
7D9
330
A
100
AcDbSymbolTableRecord
100
AcDbDimStyleTableRecord
  2
3PL±.031
 70
     0
 44
0.09375
 47
0.031
 48
0.031
 49
0.09
 71
     1
 78
     4
 79
     1
140
0.125
141
0.0
176
   256
177
   256
178
   256
271
     3
272
     3
284
     4
289
     0
340
631
345
15
346
15
347
15
371
    -1
372
    -1
1001
ACAD_DSTYLE_DIMJOGGED_JOGANGLE_SYMBOL
1070
   384
1040
0.7853981633974483
1001
ACAD_DSTYLE_DIMJAG
1070
   388
1040
1.5
1001
ACAD_DSTYLE_DIMTALN
1070
   392
1070
     0
  0
DIMSTYLE
105
A08
330
A
100
AcDbSymbolTableRecord
100
AcDbDimStyleTableRecord
  2
ROMANS
 70
     0
 40
4.0
 44
0.09
 78
     4
140
0.125
141
0.0
176
   256
177
   256
178
   256
271
     3
272
     3
289
     0
340
631
  0
ENDTAB
  0
TABLE
  2
BLOCK_RECORD
  5
1
330
0
100
AcDbSymbolTable
 70
    12
  0
BLOCK_RECORD
  5
207
102
{ACAD_XDICTIONARY
360
508
102
}
330
1
100
AcDbSymbolTableRecord
100
AcDbBlockTableRecord
  2
*Model_Space
340
452
 70
     0
280
     1
281
     0
  0
BLOCK_RECORD
  5
208
330
1
100
AcDbSymbolTableRecord
100
AcDbBlockTableRecord
  2
*Paper_Space
340
453
 70
     0
280
     1
281
     0
  0
BLOCK_RECORD
  5
63A
330
1
100
AcDbSymbolTableRecord
100
AcDbBlockTableRecord
  2
*D0
340
0
 70
     0
280
     1
281
     0
  0
BLOCK_RECORD
  5
654
330
1
100
AcDbSymbolTableRecord
100
AcDbBlockTableRecord
  2
*D1
340
0
 70
     0
280
     1
281
     0
  0
BLOCK_RECORD
  5
66E
330
1
100
AcDbSymbolTableRecord
100
AcDbBlockTableRecord
  2
*D2
340
0
 70
     0
280
     1
281
     0
  0
BLOCK_RECORD
  5
688
330
1
100
AcDbSymbolTableRecord
100
AcDbBlockTableRecord
  2
*D3
340
0
 70
     0
280
     1
281
     0
  0
BLOCK_RECORD
  5
6A2
330
1
100
AcDbSymbolTableRecord
100
AcDbBlockTableRecord
  2
*D4
340
0
 70
     0
280
     1
281
     0
  0
BLOCK_RECORD
  5
7B3
330
1
100
AcDbSymbolTableRecord
100
AcDbBlockTableRecord
  2
acad
340
0
102
{BLKREFS
331
7DD
331
7DE
331
7DF
102
}
 70
     0
280
     1
281
     0
  0
BLOCK_RECORD
  5
7B6
330
1
100
AcDbSymbolTableRecord
100
AcDbBlockTableRecord
  2
GENAXEH
340
0
 70
     0
280
     1
281
     0
  0
BLOCK_RECORD
  5
7DC
102
{ACAD_XDICTIONARY
360
9A2
102
}
330
1
100
AcDbSymbolTableRecord
100
AcDbBlockTableRecord
  2
Wilden_C_size_03-01-12
340
0
102
{BLKREFS
331
9AA
102
}
 70
     1
280
     1
281
     0
  0
BLOCK_RECORD
  5
9C3
330
1
100
AcDbSymbolTableRecord
100
AcDbBlockTableRecord
  2
REVBLK
340
0
 70
     0
280
     1
281
     0
  0
BLOCK_RECORD
  5
9EB
330
1
100
AcDbSymbolTableRecord
100
AcDbBlockTableRecord
  2
NOTES_1994
340
0
102
{BLKREFS
331
9F2
102
}
 70
     0
280
     1
281
     0
  0
BLOCK_RECORD
  5
E05
330
1
100
AcDbSymbolTableRecord
100
AcDbBlockTableRecord
  2
_ACMFILLEDHALF
340
0
 70
     0
280
     1
281
     0
  0
ENDTAB
  0
ENDSEC
  0
SECTION
  2
BLOCKS
  0
BLOCK
  5
20
330
207
100
AcDbEntity
  8
0
100
AcDbBlockBegin
  2
*Model_Space
 70
     0
 10
0.0
 20
0.0
 30
0.0
  3
*Model_Space
  1

  0
ENDBLK
  5
21
330
207
100
AcDbEntity
  8
0
100
AcDbBlockEnd
  0
BLOCK
  5
1C
330
208
100
AcDbEntity
 67
     1
  8
0
100
AcDbBlockBegin
  2
*Paper_Space
 70
     0
 10
0.0
 20
0.0
 30
0.0
  3
*Paper_Space
  1

  0
ENDBLK
  5
1D
330
208
100
AcDbEntity
 67
     1
  8
0
100
AcDbBlockEnd
  0
BLOCK
  5
63B
330
63A
100
AcDbEntity
  8
0
100
AcDbBlockBegin
  2
*D0
 70
     1
 10
0.0
 20
0.0
 30
0.0
  3
*D0
  1

  0
LINE
  5
C81
330
63A
100
AcDbEntity
  8
DIMS
440
 16777216
370
    -2
100
AcDbLine
 10
5.889012044685899
 20
8.809514957368437
 30
0.0
 11
5.889012044685899
 21
6.703615801410187
 31
0.0
  0
LINE
  5
C82
330
63A
100
AcDbEntity
  8
DIMS
440
 16777216
370
    -2
100
AcDbLine
 10
10.6134214934859
 20
8.809514957368437
 30
0.0
 11
10.6134214934859
 21
6.703615801410187
 31
0.0
  0
LINE
  5
C83
330
63A
100
AcDbEntity
  8
DIMS
440
 16777216
370
    -2
100
AcDbLine
 10
6.264012044685899
 20
6.883615801410186
 30
0.0
 11
7.852930330782965
 21
6.883615801410186
 31
0.0
  0
LINE
  5
C84
330
63A
100
AcDbEntity
  8
DIMS
440
 16777216
370
    -2
100
AcDbLine
 10
10.2384214934859
 20
6.883615801410186
 30
0.0
 11
8.632609730510113
 21
6.883615801410186
 31
0.0
  0
SOLID
  5
C85
330
63A
100
AcDbEntity
  8
DIMS
440
 16777216
100
AcDbTrace
 10
6.264012044685899
 20
6.946115801410186
 30
0.0
 11
6.264012044685899
 21
6.821115801410186
 31
0.0
 12
5.889012044685899
 22
6.883615801410186
 32
0.0
 13
5.889012044685899
 23
6.883615801410186
 33
0.0
  0
SOLID
  5
C86
330
63A
100
AcDbEntity
  8
DIMS
440
 16777216
100
AcDbTrace
 10
10.2384214934859
 20
6.946115801410186
 30
0.0
 11
10.2384214934859
 21
6.821115801410186
 31
0.0
 12
10.6134214934859
 22
6.883615801410186
 32
0.0
 13
10.6134214934859
 23
6.883615801410186
 33
0.0
  0
MTEXT
  5
C87
330
63A
100
AcDbEntity
  8
DIMS
440
 16777216
100
AcDbMText
 10
8.242770030646539
 20
6.883615801410186
 30
0.0
 40
0.25
 41
0.0
 46
0.0
 71
     5
 72
     1
  1
\A1;ØA
  7
ARIAL_NARROW_BOLD
 73
     1
 44
1.0
  0
POINT
  5
C88
330
63A
100
AcDbEntity
  8
Defpoints
 62
     0
440
 16777216
100
AcDbPoint
 10
5.889012044685899
 20
8.934514957368437
 30
0.0
  0
POINT
  5
C89
330
63A
100
AcDbEntity
  8
Defpoints
 62
     0
440
 16777216
100
AcDbPoint
 10
10.6134214934859
 20
8.934514957368437
 30
0.0
  0
POINT
  5
C8A
330
63A
100
AcDbEntity
  8
Defpoints
 62
     0
440
 16777216
100
AcDbPoint
 10
10.6134214934859
 20
6.883615801410186
 30
0.0
  0
ENDBLK
  5
63C
330
63A
100
AcDbEntity
  8
0
100
AcDbBlockEnd
  0
BLOCK
  5
655
330
654
100
AcDbEntity
  8
0
100
AcDbBlockBegin
  2
*D1
 70
     1
 10
0.0
 20
0.0
 30
0.0
  3
*D1
  1

  0
LINE
  5
C95
330
654
100
AcDbEntity
  8
DIMS
440
 16777216
370
    -2
100
AcDbLine
 10
8.7297600761859
 20
8.186483461368437
 30
0.0
 11
11.51676082269433
 21
8.186483461368437
 31
0.0
  0
LINE
  5
C96
330
654
100
AcDbEntity
  8
DIMS
440
 16777216
370
    -2
100
AcDbLine
 10
10.5415710997859
 20
8.737664563668436
 30
0.0
 11
11.51676082269433
 21
8.737664563668436
 31
0.0
  0
LINE
  5
C97
330
654
100
AcDbEntity
  8
DIMS
440
 16777216
370
    -2
100
AcDbLine
 10
11.33676082269433
 20
7.811483461368436
 30
0.0
 11
11.33676082269433
 21
7.436483461368436
 31
0.0
  0
LINE
  5
C98
330
654
100
AcDbEntity
  8
DIMS
440
 16777216
370
    -2
100
AcDbLine
 10
11.33676082269433
 20
9.112664563668436
 30
0.0
 11
11.33676082269433
 21
9.487664563668436
 31
0.0
  0
SOLID
  5
C99
330
654
100
AcDbEntity
  8
DIMS
440
 16777216
100
AcDbTrace
 10
11.27426082269433
 20
7.811483461368436
 30
0.0
 11
11.39926082269433
 21
7.811483461368436
 31
0.0
 12
11.33676082269433
 22
8.186483461368437
 32
0.0
 13
11.33676082269433
 23
8.186483461368437
 33
0.0
  0
SOLID
  5
C9A
330
654
100
AcDbEntity
  8
DIMS
440
 16777216
100
AcDbTrace
 10
11.27426082269433
 20
9.112664563668436
 30
0.0
 11
11.39926082269433
 21
9.112664563668436
 31
0.0
 12
11.33676082269433
 22
8.737664563668436
 32
0.0
 13
11.33676082269433
 23
8.737664563668436
 33
0.0
  0
MTEXT
  5
C9B
330
654
100
AcDbEntity
  8
DIMS
440
 16777216
100
AcDbMText
 10
11.33676082269433
 20
8.462074012518439
 30
0.0
 40
0.25
 41
0.0
 46
0.0
 71
     5
 72
     1
  1
\A1;B
  7
ARIAL_NARROW_BOLD
 73
     1
 44
1.0
  0
POINT
  5
C9C
330
654
100
AcDbEntity
  8
Defpoints
 62
     0
440
 16777216
100
AcDbPoint
 10
8.6047600761859
 20
8.186483461368437
 30
0.0
  0
POINT
  5
C9D
330
654
100
AcDbEntity
  8
Defpoints
 62
     0
440
 16777216
100
AcDbPoint
 10
10.4165710997859
 20
8.737664563668436
 30
0.0
  0
POINT
  5
C9E
330
654
100
AcDbEntity
  8
Defpoints
 62
     0
440
 16777216
100
AcDbPoint
 10
11.33676082269433
 20
8.737664563668436
 30
0.0
  0
ENDBLK
  5
656
330
654
100
AcDbEntity
  8
0
100
AcDbBlockEnd
  0
BLOCK
  5
66F
330
66E
100
AcDbEntity
  8
0
100
AcDbBlockBegin
  2
*D2
 70
     1
 10
0.0
 20
0.0
 30
0.0
  3
*D2
  1

  0
LINE
  5
CA9
330
66E
100
AcDbEntity
  8
DIMS
440
 16777216
370
    -2
100
AcDbLine
 10
8.7297600761859
 20
8.186483461368437
 30
0.0
 11
12.19291308490963
 21
8.186483461368435
 31
0.0
  0
LINE
  5
CAA
330
66E
100
AcDbEntity
  8
DIMS
440
 16777216
370
    -2
100
AcDbLine
 10
9.6289650034859
 20
12.26916062666844
 30
0.0
 11
12.19291308490963
 21
12.26916062666843
 31
0.0
  0
LINE
  5
CAB
330
66E
100
AcDbEntity
  8
DIMS
440
 16777216
370
    -2
100
AcDbLine
 10
12.01291308490963
 20
8.561483461368435
 30
0.0
 11
12.01291308490963
 21
10.52877962436673
 31
0.0
  0
LINE
  5
CAC
330
66E
100
AcDbEntity
  8
DIMS
440
 16777216
370
    -2
100
AcDbLine
 10
12.01291308490963
 20
11.89416062666843
 30
0.0
 11
12.01291308490963
 21
11.14730622736809
 31
0.0
  0
SOLID
  5
CAD
330
66E
100
AcDbEntity
  8
DIMS
440
 16777216
100
AcDbTrace
 10
11.95041308490963
 20
8.561483461368437
 30
0.0
 11
12.07541308490963
 21
8.561483461368435
 31
0.0
 12
12.01291308490963
 22
8.186483461368435
 32
0.0
 13
12.01291308490963
 23
8.186483461368435
 33
0.0
  0
SOLID
  5
CAE
330
66E
100
AcDbEntity
  8
DIMS
440
 16777216
100
AcDbTrace
 10
11.95041308490963
 20
11.89416062666843
 30
0.0
 11
12.07541308490963
 21
11.89416062666843
 31
0.0
 12
12.01291308490963
 22
12.26916062666843
 32
0.0
 13
12.01291308490963
 23
12.26916062666843
 33
0.0
  0
MTEXT
  5
CAF
330
66E
100
AcDbEntity
  8
DIMS
440
 16777216
100
AcDbMText
 10
12.01291308490963
 20
10.83804292586741
 30
0.0
 40
0.25
 41
0.0
 46
0.0
 71
     5
 72
     1
  1
\A1;C
  7
ARIAL_NARROW_BOLD
 73
     1
 44
1.0
  0
POINT
  5
CB0
330
66E
100
AcDbEntity
  8
Defpoints
 62
     0
440
 16777216
100
AcDbPoint
 10
8.6047600761859
 20
8.186483461368437
 30
0.0
  0
POINT
  5
CB1
330
66E
100
AcDbEntity
  8
Defpoints
 62
     0
440
 16777216
100
AcDbPoint
 10
9.5039650034859
 20
12.26916062666844
 30
0.0
  0
POINT
  5
CB2
330
66E
100
AcDbEntity
  8
Defpoints
 62
     0
440
 16777216
100
AcDbPoint
 10
12.01291308490963
 20
12.26916062666843
 30
0.0
  0
ENDBLK
  5
670
330
66E
100
AcDbEntity
  8
0
100
AcDbBlockEnd
  0
BLOCK
  5
689
330
688
100
AcDbEntity
  8
0
100
AcDbBlockBegin
  2
*D3
 70
     1
 10
0.0
 20
0.0
 30
0.0
  3
*D3
  1

  0
LINE
  5
CE8
330
688
100
AcDbEntity
  8
DIMS
440
 16777216
370
    -2
100
AcDbLine
 10
8.2512167690859
 20
13.09491209223462
 30
0.0
 11
8.2512167690859
 21
12.70077438515912
 31
0.0
  0
LINE
  5
CE9
330
688
100
AcDbEntity
  8
DIMS
440
 16777216
370
    -2
100
AcDbLine
 10
8.571363540085901
 20
15.60875965063462
 30
0.0
 11
8.571363540085901
 21
12.70077438515912
 31
0.0
  0
LINE
  5
CEA
330
688
100
AcDbEntity
  8
DIMS
440
 16777216
370
    -2
100
AcDbLine
 10
7.8762167690859
 20
12.88077438515912
 30
0.0
 11
7.5012167690859
 21
12.88077438515912
 31
0.0
  0
LINE
  5
CEB
330
688
100
AcDbEntity
  8
DIMS
440
 16777216
370
    -2
100
AcDbLine
 10
8.946363540085901
 20
12.88077438515912
 30
0.0
 11
9.374225068053156
 21
12.88077438515912
 31
0.0
  0
SOLID
  5
CEC
330
688
100
AcDbEntity
  8
DIMS
440
 16777216
100
AcDbTrace
 10
7.8762167690859
 20
12.94327438515912
 30
0.0
 11
7.8762167690859
 21
12.81827438515912
 31
0.0
 12
8.2512167690859
 22
12.88077438515912
 32
0.0
 13
8.2512167690859
 23
12.88077438515912
 33
0.0
  0
SOLID
  5
CED
330
688
100
AcDbEntity
  8
DIMS
440
 16777216
100
AcDbTrace
 10
8.946363540085901
 20
12.94327438515912
 30
0.0
 11
8.946363540085901
 21
12.81827438515912
 31
0.0
 12
8.571363540085901
 22
12.88077438515912
 32
0.0
 13
8.571363540085901
 23
12.88077438515912
 33
0.0
  0
MTEXT
  5
CEE
330
688
100
AcDbEntity
  8
DIMS
440
 16777216
100
AcDbMText
 10
9.640087960276895
 20
12.88077438515912
 30
0.0
 40
0.25
 41
0.0
 46
0.0
 71
     5
 72
     1
  1
\A1;D
  7
ARIAL_NARROW_BOLD
 73
     1
 44
1.0
  0
POINT
  5
CEF
330
688
100
AcDbEntity
  8
Defpoints
 62
     0
440
 16777216
100
AcDbPoint
 10
8.2512167690859
 20
13.21991209223462
 30
0.0
  0
POINT
  5
CF0
330
688
100
AcDbEntity
  8
Defpoints
 62
     0
440
 16777216
100
AcDbPoint
 10
8.571363540085901
 20
15.73375965063462
 30
0.0
  0
POINT
  5
CF1
330
688
100
AcDbEntity
  8
Defpoints
 62
     0
440
 16777216
100
AcDbPoint
 10
8.571363540085901
 20
12.88077438515912
 30
0.0
  0
ENDBLK
  5
68A
330
688
100
AcDbEntity
  8
0
100
AcDbBlockEnd
  0
BLOCK
  5
6A3
330
6A2
100
AcDbEntity
  8
0
100
AcDbBlockBegin
  2
*D4
 70
     1
 10
0.0
 20
0.0
 30
0.0
  3
*D4
  1

  0
LINE
  5
CDD
330
6A2
100
AcDbEntity
  8
DIMS
440
 16777216
370
    -2
100
AcDbLine
 10
10.8634214934859
 20
15.70711681663462
 30
0.0
 11
11.34840755836622
 21
15.70711681663462
 31
0.0
  0
LINE
  5
CDE
330
6A2
100
AcDbEntity
  8
DIMS
440
 16777216
370
    -2
100
AcDbLine
 10
8.989867477085901
 20
16.02726358763462
 30
0.0
 11
11.34840755836622
 21
16.02726358763462
 31
0.0
  0
LINE
  5
CDF
330
6A2
100
AcDbEntity
  8
DIMS
440
 16777216
370
    -2
100
AcDbLine
 10
11.16840755836622
 20
15.33211681663462
 30
0.0
 11
11.16840755836622
 21
14.95711681663462
 31
0.0
  0
LINE
  5
CE0
330
6A2
100
AcDbEntity
  8
DIMS
440
 16777216
370
    -2
100
AcDbLine
 10
11.16840755836622
 20
16.40226358763462
 30
0.0
 11
11.16840755836622
 21
16.77726358763462
 31
0.0
  0
LINE
  5
CE1
330
6A2
100
AcDbEntity
  8
DIMS
440
 16777216
370
    -2
100
AcDbLine
 10
11.16840755836622
 20
16.77726358763462
 30
0.0
 11
11.54340755836622
 21
16.77726358763462
 31
0.0
  0
SOLID
  5
CE2
330
6A2
100
AcDbEntity
  8
DIMS
440
 16777216
100
AcDbTrace
 10
11.10590755836622
 20
15.33211681663462
 30
0.0
 11
11.23090755836622
 21
15.33211681663462
 31
0.0
 12
11.16840755836622
 22
15.70711681663462
 32
0.0
 13
11.16840755836622
 23
15.70711681663462
 33
0.0
  0
SOLID
  5
CE3
330
6A2
100
AcDbEntity
  8
DIMS
440
 16777216
100
AcDbTrace
 10
11.10590755836622
 20
16.40226358763462
 30
0.0
 11
11.23090755836622
 21
16.40226358763462
 31
0.0
 12
11.16840755836622
 22
16.02726358763462
 32
0.0
 13
11.16840755836622
 23
16.02726358763462
 33
0.0
  0
MTEXT
  5
CE4
330
6A2
100
AcDbEntity
  8
DIMS
440
 16777216
100
AcDbMText
 10
11.80134070979869
 20
16.77726358763462
 30
0.0
 40
0.25
 41
0.0
 46
0.0
 71
     5
 72
     1
  1
\A1;E
  7
ARIAL_NARROW_BOLD
 73
     1
 44
1.0
  0
POINT
  5
CE5
330
6A2
100
AcDbEntity
  8
Defpoints
 62
     0
440
 16777216
100
AcDbPoint
 10
10.7384214934859
 20
15.70711681663462
 30
0.0
  0
POINT
  5
CE6
330
6A2
100
AcDbEntity
  8
Defpoints
 62
     0
440
 16777216
100
AcDbPoint
 10
8.864867477085901
 20
16.02726358763462
 30
0.0
  0
POINT
  5
CE7
330
6A2
100
AcDbEntity
  8
Defpoints
 62
     0
440
 16777216
100
AcDbPoint
 10
11.16840755836622
 20
16.02726358763462
 30
0.0
  0
ENDBLK
  5
6A4
330
6A2
100
AcDbEntity
  8
0
100
AcDbBlockEnd
  0
BLOCK
  5
7B4
330
7B3
100
AcDbEntity
  8
0
100
AcDbBlockBegin
  2
acad
 70
     0
 10
0.0
 20
0.0
 30
0.0
  3
acad
  1

  0
ENDBLK
  5
7B5
330
7B3
100
AcDbEntity
  8
0
100
AcDbBlockEnd
  0
BLOCK
  5
7B7
330
7B6
100
AcDbEntity
  8
0
100
AcDbBlockBegin
  2
GENAXEH
 70
     0
 10
0.0
 20
0.0
 30
0.0
  3
GENAXEH
  1

  0
LINE
  5
7B8
330
7B6
100
AcDbEntity
  8
0
100
AcDbLine
 10
-1.0
 20
0.0
 30
0.0
 11
1.0
 21
0.0
 31
0.0
  0
ENDBLK
  5
7B9
330
7B6
100
AcDbEntity
  8
0
100
AcDbBlockEnd
  0
BLOCK
  5
9A4
330
7DC
100
AcDbEntity
  8
0
100
AcDbBlockBegin
  2
Wilden_C_size_03-01-12
 70
     2
 10
0.0
 20
0.0
 30
0.0
  3
Wilden_C_size_03-01-12
  1

  0
INSERT
  5
7DD
330
7DC
100
AcDbEntity
  8
0
100
AcDbBlockReference
  2
acad
 10
0.0
 20
0.0
 30
0.0
  0
INSERT
  5
7DE
330
7DC
100
AcDbEntity
  8
0
100
AcDbBlockReference
  2
acad
 10
0.0
 20
0.0
 30
0.0
  0
INSERT
  5
7DF
330
7DC
100
AcDbEntity
  8
0
100
AcDbBlockReference
  2
acad
 10
0.0
 20
0.0
 30
0.0
  0
LWPOLYLINE
  5
7E0
330
7DC
100
AcDbEntity
  8
OUTER BORDER
100
AcDbPolyline
 90
        4
 70
     1
 43
0.0
 10
-0.0000000027975346
 20
0.0000000018578774
 10
23.99999999720343
 20
0.0000000018578774
 10
23.99999999720343
 20
18.0000000018586
 10
-0.0000000027975346
 20
18.0000000018586
  0
LWPOLYLINE
  5
7E1
330
7DC
100
AcDbEntity
  8
BORDER
100
AcDbPolyline
 90
        5
 70
     0
 43
0.03
 10
0.3124999972024653
 20
0.2775000018578773
 10
0.3124999972024653
 20
17.12550000185787
 10
22.61249999720247
 20
17.12550000185787
 10
22.61249999720247
 20
0.2775000018578773
 10
0.3124999972024653
 20
0.2775000018578773
  0
TEXT
  5
7E2
330
7DC
100
AcDbEntity
  8
BORDER TEXT
100
AcDbText
 10
19.30659396035376
 20
0.4347766852784727
 30
0.0
 40
0.05
  1
DATE
 41
1.199999999999999
  7
ROMANS
100
AcDbText
  0
TEXT
  5
7E3
330
7DC
100
AcDbEntity
  8
BORDER TEXT
100
AcDbText
 10
17.19582156138625
 20
0.4333155171271094
 30
0.0
 40
0.05
  1
APPROVED BY
 41
1.199999999999999
  7
ROMANS
100
AcDbText
  0
TEXT
  5
7E4
330
7DC
100
AcDbEntity
  8
BORDER TEXT
100
AcDbText
 10
11.53601612589211
 20
0.3940315436999122
 30
0.0
 40
0.065625
  1
PROHIBITED EXCEPT AS OTHERWISE AGREED TO IN WRITING.
  7
ROMANS
100
AcDbText
  0
TEXT
  5
7E5
330
7DC
100
AcDbEntity
  8
BORDER TEXT
100
AcDbText
 10
11.53601612589211
 20
0.5002815436999122
 30
0.0
 40
0.065625
  1
DISCLOSURE OR USE OF THIS DOCUMENT IS EXPRESSLY
  7
ROMANS
100
AcDbText
  0
TEXT
  5
7E6
330
7DC
100
AcDbEntity
  8
BORDER TEXT
100
AcDbText
 10
11.53601612589211
 20
0.6065315436999123
 30
0.0
 40
0.065625
  1
WILDEN PUMP AND ENGINEERING CO.  ANY REPRODUCTION,
  7
ROMANS
100
AcDbText
  0
TEXT
  5
7E7
330
7DC
100
AcDbEntity
  8
BORDER TEXT
100
AcDbText
 10
11.53601612589211
 20
0.7127815436999123
 30
0.0
 40
0.065625
  1
THIS DOCUMENT AND ITS CONTENTS ARE PROPRIETARY TO
  7
ROMANS
100
AcDbText
  0
TEXT
  5
7E8
330
7DC
100
AcDbEntity
  8
BORDER TEXT
100
AcDbText
 10
17.18721510940472
 20
1.647106269907708
 30
0.0
 40
0.05
  1
TITLE
 41
1.199999999999999
  7
ROMANS
100
AcDbText
  0
LINE
  5
7E9
330
7DC
100
AcDbEntity
  8
BORDER TEXT
100
AcDbLine
 10
14.81018493596842
 20
1.987646526985869
 30
0.0
 11
16.97530690705651
 21
1.987646526985869
 31
0.0
  0
LINE
  5
7EA
330
7DC
100
AcDbEntity
  8
BORDER
100
AcDbLine
 10
14.68699999720246
 20
1.277500001857877
 30
0.0
 11
17.12499999720246
 21
1.277500001857877
 31
0.0
  0
LINE
  5
7EB
330
7DC
100
AcDbEntity
  8
BORDER
100
AcDbLine
 10
14.68699999720246
 20
1.027500001857877
 30
0.0
 11
17.12499999720246
 21
1.027500001857877
 31
0.0
  0
LINE
  5
7EC
330
7DC
100
AcDbEntity
  8
BORDER
100
AcDbLine
 10
14.68699999720245
 20
0.7775000018578789
 30
0.0
 11
17.12499999720245
 21
0.7775000018578789
 31
0.0
  0
TEXT
  5
7ED
330
7DC
100
AcDbEntity
  8
BORDER TEXT
100
AcDbText
 10
20.69204707259112
 20
0.9312138978719389
 30
0.0
 40
0.05
  1
ASSY. NO.
 41
1.199999999999999
  7
ROMANS
100
AcDbText
  0
LINE
  5
7EE
330
7DC
100
AcDbEntity
  8
BORDER
100
AcDbLine
 10
22.23749999720247
 20
0.2775000018578773
 30
0.0
 11
22.23749999720247
 21
0.7775000018578773
 31
0.0
  0
TEXT
  5
7EF
330
7DC
100
AcDbEntity
  8
BORDER TEXT
100
AcDbText
 10
22.32436920190774
 20
0.6666023582321558
 30
0.0
 40
0.05
  1
REV.
 41
1.199999999999999
  7
ROMANS
100
AcDbText
  0
LINE
  5
7F0
330
7DC
100
AcDbEntity
  8
BORDER
100
AcDbLine
 10
20.62499999720246
 20
0.2775000018578773
 30
0.0
 11
20.62499999720246
 21
1.027500001857877
 31
0.0
  0
LINE
  5
7F1
330
7DC
100
AcDbEntity
  8
BORDER
100
AcDbLine
 10
17.12499999720246
 20
0.7775000018578773
 30
0.0
 11
22.61249999720247
 21
0.7775000018578773
 31
0.0
  0
TEXT
  5
7F2
330
7DC
100
AcDbEntity
  8
BORDER TEXT
100
AcDbText
 10
15.9540924622932
 20
0.43752343495802
 30
0.0
 40
0.05
  1
SHEET
 41
1.199999999999999
  7
ROMANS
100
AcDbText
  0
TEXT
  5
7F3
330
7DC
100
AcDbEntity
  8
BORDER TEXT
100
AcDbText
 10
19.30581430884257
 20
0.9312138978719389
 30
0.0
 40
0.05
  1
DATE
 41
1.199999999999999
  7
ROMANS
100
AcDbText
  0
TEXT
  5
7F4
330
7DC
100
AcDbEntity
  8
BORDER TEXT
100
AcDbText
 10
20.68954259829391
 20
0.6683953837737493
 30
0.0
 40
0.05
  1
DRAWING NO.
 41
1.199999999999999
  7
ROMANS
100
AcDbText
  0
TEXT
  5
7F5
330
7DC
100
AcDbEntity
  8
BORDER TEXT
100
AcDbText
 10
17.18721510940472
 20
0.9324020032898316
 30
0.0
 40
0.05
  1
DRAWN BY
 41
1.199999999999999
  7
ROMANS
100
AcDbText
  0
TEXT
  5
7F6
330
7DC
100
AcDbEntity
  8
BORDER TEXT
100
AcDbText
 10
14.7518041855011
 20
0.4397478364264752
 30
0.0
 40
0.05
  1
SCALE
 41
1.199999999999999
  7
ROMANS
100
AcDbText
  0
TEXT
  5
7F7
330
7DC
100
AcDbEntity
  8
BORDER TEXT
100
AcDbText
 10
19.30659396035376
 20
0.6775893569503398
 30
0.0
 40
0.05
  1
DATE
 41
1.199999999999999
  7
ROMANS
100
AcDbText
  0
TEXT
  5
7F8
330
7DC
100
AcDbEntity
  8
BORDER TEXT
100
AcDbText
 10
17.19582156138625
 20
0.6761281887989764
 30
0.0
 40
0.05
  1
CHECKED BY
 41
1.199999999999999
  7
ROMANS
100
AcDbText
  0
LINE
  5
7F9
330
7DC
100
AcDbEntity
  8
BORDER
100
AcDbLine
 10
17.12499999720246
 20
0.5275000018578773
 30
0.0
 11
20.62499999720246
 21
0.5275000018578773
 31
0.0
  0
LWPOLYLINE
  5
7FA
330
7DC
100
AcDbEntity
  8
BORDER
100
AcDbPolyline
 90
        2
 70
     0
 43
0.0
 10
19.24999999720246
 20
1.027500001857877
 10
19.24999999720246
 20
0.2775000018578773
  0
LWPOLYLINE
  5
7FB
330
7DC
100
AcDbEntity
  8
BORDER
100
AcDbPolyline
 90
        2
 70
     0
 43
0.025
 10
17.12499999720246
 20
1.027500001857877
 10
22.61249999720247
 20
1.027500001857877
  0
LWPOLYLINE
  5
7FC
330
7DC
100
AcDbEntity
  8
BORDER
100
AcDbPolyline
 90
        2
 70
     0
 43
0.025
 10
17.12499999720246
 20
1.777500001857877
 10
22.61249999720247
 20
1.777500001857877
  0
LWPOLYLINE
  5
7FD
330
7DC
100
AcDbEntity
  8
BORDER
100
AcDbPolyline
 90
        2
 70
     0
 43
0.03
 10
17.12499999720246
 20
2.402500001857877
 10
22.61249999720247
 20
2.402500001857877
  0
LWPOLYLINE
  5
7FE
330
7DC
100
AcDbEntity
  8
BORDER
100
AcDbPolyline
 90
        2
 70
     0
 43
0.03
 10
17.12499999720246
 20
2.402500001857877
 10
17.12499999720245
 20
0.2775000018578773
  0
TEXT
  5
7FF
330
7DC
100
AcDbEntity
  8
BORDER TEXT
100
AcDbText
 10
15.1944587259413
 20
1.484145171129905
 30
0.0
 40
0.1
  1
TOLERANCES ARE:
  7
ROMANS
100
AcDbText
  0
TEXT
  5
800
330
7DC
100
AcDbEntity
  8
BORDER TEXT
100
AcDbText
 10
14.7570733187249
 20
1.824343195013461
 30
0.0
 40
0.1
  1
UNLESS OTHERWISE SPECIFIED
  7
ROMANS
100
AcDbText
  0
LINE
  5
801
330
7DC
100
AcDbEntity
  8
BORDER
100
AcDbLine
 10
15.90599999720246
 20
0.5275000018578789
 30
0.0
 11
15.90599999720246
 21
0.2775000018578773
 31
0.0
  0
LWPOLYLINE
  5
802
330
7DC
100
AcDbEntity
  8
BORDER
100
AcDbPolyline
 90
        2
 70
     0
 43
0.03
 10
14.68699999720245
 20
2.402500001857877
 10
14.68699999720245
 20
0.2775000018578773
  0
TEXT
  5
803
330
7DC
100
AcDbEntity
  8
BORDER TEXT
100
AcDbText
 10
14.82802160624199
 20
1.657626019321964
 30
0.0
 40
0.1
  1
DIMENSIONS ARE IN INCHES
  7
ROMANS
100
AcDbText
  0
TEXT
  5
804
330
7DC
100
AcDbEntity
  8
BORDER TEXT
100
AcDbText
 10
15.7620922008165
 20
0.8526468151193878
 30
0.0
 40
0.1
  1
.XXX %%P
  7
ROMANS
100
AcDbText
  0
TEXT
  5
805
330
7DC
100
AcDbEntity
  8
BORDER TEXT
100
AcDbText
 10
14.96453945465314
 20
0.596148019856245
 30
0.0
 40
0.1
  1
ANGLES
  7
ROMANS
100
AcDbText
  0
LWPOLYLINE
  5
806
330
7DC
100
AcDbEntity
  8
BORDER
100
AcDbPolyline
 90
        2
 70
     0
 43
0.03
 10
14.68699999720245
 20
2.402500001857877
 10
17.12499999720245
 20
2.402500001857879
  0
TEXT
  5
807
330
7DC
100
AcDbEntity
  8
BORDER TEXT
100
AcDbText
 10
14.95025350351964
 20
1.099522898912872
 30
0.0
 40
0.1
  1
DECIMALS .XX  %%p
  7
ROMANS
100
AcDbText
  0
LINE
  5
808
330
7DC
100
AcDbEntity
  8
BORDER
100
AcDbLine
 10
14.68699999720245
 20
0.5275000018578789
 30
0.0
 11
17.12499999720245
 21
0.5275000018578789
 31
0.0
  0
TEXT
  5
809
330
7DC
100
AcDbEntity
  8
BORDER TEXT
100
AcDbText
 10
14.81811988094948
 20
2.080228669699183
 30
0.0
 40
0.1126596433650581
  1
DO NOT SCALE DRAWING
  7
ROMAND
 72
     4
 11
15.90179835522289
 21
2.136558491381712
 31
0.0
100
AcDbText
  0
TEXT
  5
80A
330
7DC
100
AcDbEntity
  8
BORDER TEXT
100
AcDbText
 10
16.19236254907613
 20
0.5920610722588562
 30
0.0
 40
0.1
  1
%%P
  7
ROMANS
100
AcDbText
  0
ATTDEF
  5
80B
330
7DC
100
AcDbEntity
  8
ATTRIBUTES
100
AcDbText
 10
16.40812288632696
 20
1.100017084230453
 30
0.0
 40
0.1
  1
.01
  7
ROMANS
100
AcDbAttributeDefinition
280
     0
  3
TOLERANCE FOR .XX DECIMAL
  2
.01
 70
     0
280
     0
  0
ATTDEF
  5
80C
330
7DC
100
AcDbEntity
  8
ATTRIBUTES
100
AcDbText
 10
16.40497158693417
 20
0.8482196655981724
 30
0.0
 40
0.1
  1
.005
  7
ROMANS
100
AcDbAttributeDefinition
280
     0
  3
TOLERANCE FOR .XXX DECIMAL
  2
.005
 70
     0
280
     0
  0
ATTDEF
  5
80D
330
7DC
100
AcDbEntity
  8
ATTRIBUTES
100
AcDbText
 10
16.42577016292662
 20
0.5995308570724634
 30
0.0
 40
0.1
  1
1/2%%D
  7
ROMANS
100
AcDbAttributeDefinition
280
     0
  3
TOLERANCE FOR ANGLES
  2
1/2%%D
 70
     0
280
     0
  0
MTEXT
  5
80E
330
7DC
100
AcDbEntity
  8
CONTROLLED STAMP
100
AcDbMText
 10
3.739868313852553
 20
17.50150000185787
 30
0.0
 40
0.188
 41
16.72822731342194
 46
0.0
 71
     1
 72
     5
  1
CAD generated and maintained drawing. All printed and electronic copies outside of Wilden's engineering database are {\fArial Narrow|b1|i0|c0|p34;"Uncontrolled" }and shall be used for reference only.
  7
Arial Narrow
 73
     1
 44
1.0
1001
ACAD
1000
ACAD_MTEXT_DEFINED_HEIGHT_BEGIN
1070
    46
1040
0.0
1000
ACAD_MTEXT_DEFINED_HEIGHT_END
  0
MTEXT
  5
80F
330
7DC
100
AcDbEntity
  8
0
  6
Continuous
 62
     2
100
AcDbMText
 10
16.66575763480247
 20
17.02237022985787
 30
0.0
 40
0.09
 41
0.2571428571
 46
0.0
 71
     1
 72
     1
  1
REV.
  7
ROMANS
 73
     1
 44
0.9
  0
MTEXT
  5
810
330
7DC
100
AcDbEntity
  8
0
  6
Continuous
 62
     2
100
AcDbMText
 10
22.22057961250247
 20
17.01633295265787
 30
0.0
 40
0.09
 41
0.2914285714
 46
0.0
 71
     1
 72
     1
  1
DATE
  7
ROMANS
 73
     1
 44
0.9
  0
MTEXT
  5
811
330
7DC
100
AcDbEntity
  8
0
  6
Continuous
 62
     2
100
AcDbMText
 10
21.24030988440247
 20
17.01633295265787
 30
0.0
 40
0.09
 41
0.2914285714
 46
0.0
 71
     1
 72
     1
  1
CHK.
  7
ROMANS
 73
     1
 44
0.9
  0
MTEXT
  5
812
330
7DC
100
AcDbEntity
  8
0
  6
Continuous
 62
     2
100
AcDbMText
 10
21.73685582710247
 20
17.01633295265787
 30
0.0
 40
0.09
 41
0.2785714286
 46
0.0
 71
     1
 72
     1
  1
APP.
  7
ROMANS
 73
     1
 44
0.9
  0
MTEXT
  5
813
330
7DC
100
AcDbEntity
  8
0
  6
Continuous
 62
     2
100
AcDbMText
 10
18.38037356790247
 20
17.01633295265787
 30
0.0
 40
0.09
 41
0.8185715999999999
 46
0.0
 71
     1
 72
     1
  1
DESCRIPTION
  7
ROMANS
 73
     1
 44
0.9
  0
MTEXT
  5
814
330
7DC
100
AcDbEntity
  8
0
  6
Continuous
 62
     2
100
AcDbMText
 10
20.80280988440247
 20
17.01633295265787
 30
0.0
 40
0.09
 41
0.1457142857
 46
0.0
 71
     1
 72
     1
  1
BY
  7
ROMANS
 73
     1
 44
0.9
  0
LWPOLYLINE
  5
815
330
7DC
100
AcDbEntity
  8
0
  6
Continuous
 62
     5
100
AcDbPolyline
 90
        2
 70
     0
 43
0.0300000002
 10
16.61249999720247
 20
16.82550000185787
 10
16.61249999720247
 20
17.12550000185787
  0
LWPOLYLINE
  5
816
330
7DC
100
AcDbEntity
  8
0
  6
Continuous
 62
     5
100
AcDbPolyline
 90
        2
 70
     0
 43
0.0300000002
 10
16.98749999720247
 20
16.82550000185787
 10
16.98749999720247
 20
17.12550000185787
  0
LWPOLYLINE
  5
817
330
7DC
100
AcDbEntity
  8
0
  6
Continuous
 62
     5
100
AcDbPolyline
 90
        2
 70
     0
 43
0.0300000002
 10
16.61249999720247
 20
16.82550000185787
 10
22.61249999720247
 20
16.82550000185787
  0
LWPOLYLINE
  5
818
330
7DC
100
AcDbEntity
  8
0
  6
Continuous
 62
     5
100
AcDbPolyline
 90
        2
 70
     0
 43
0.0300000002
 10
20.61249999720247
 20
16.82550000185787
 10
20.61249999720247
 20
17.12550000185787
  0
LWPOLYLINE
  5
819
330
7DC
100
AcDbEntity
  8
0
  6
Continuous
 62
     5
100
AcDbPolyline
 90
        2
 70
     0
 43
0.0300000002
 10
21.11249999720247
 20
16.82550000185787
 10
21.11249999720247
 20
17.12550000185787
  0
LWPOLYLINE
  5
81A
330
7DC
100
AcDbEntity
  8
0
  6
Continuous
 62
     5
100
AcDbPolyline
 90
        2
 70
     0
 43
0.0300000002
 10
21.61249999720247
 20
16.82550000185787
 10
21.61249999720247
 20
17.12550000185787
  0
LWPOLYLINE
  5
81B
330
7DC
100
AcDbEntity
  8
0
  6
Continuous
 62
     5
100
AcDbPolyline
 90
        2
 70
     0
 43
0.0300000002
 10
22.11249999720247
 20
16.82550000185787
 10
22.11249999720247
 20
17.12550000185787
  0
LINE
  5
81C
330
7DC
100
AcDbEntity
  8
0
  6
Continuous
 62
     5
100
AcDbLine
 10
16.61249999720247
 20
16.82550000185787
 30
0.0
 11
16.61249999720247
 21
16.62550000185787
 31
0.0
  0
LINE
  5
81D
330
7DC
100
AcDbEntity
  8
0
  6
Continuous
 62
     5
100
AcDbLine
 10
16.98749999720247
 20
16.82550000185787
 30
0.0
 11
16.98749999720247
 21
16.62550000185787
 31
0.0
  0
LINE
  5
81E
330
7DC
100
AcDbEntity
  8
0
  6
Continuous
 62
     5
100
AcDbLine
 10
20.61249999720247
 20
16.82550000185787
 30
0.0
 11
20.61249999720247
 21
16.62550000185787
 31
0.0
  0
LINE
  5
81F
330
7DC
100
AcDbEntity
  8
0
  6
Continuous
 62
     5
100
AcDbLine
 10
21.11249999720247
 20
16.82550000185787
 30
0.0
 11
21.11249999720247
 21
16.62550000185787
 31
0.0
  0
LINE
  5
820
330
7DC
100
AcDbEntity
  8
0
  6
Continuous
 62
     5
100
AcDbLine
 10
21.61249999720247
 20
16.82550000185787
 30
0.0
 11
21.61249999720247
 21
16.62550000185787
 31
0.0
  0
LINE
  5
821
330
7DC
100
AcDbEntity
  8
0
  6
Continuous
 62
     5
100
AcDbLine
 10
22.11249999720247
 20
16.82550000185787
 30
0.0
 11
22.11249999720247
 21
16.62550000185787
 31
0.0
  0
HATCH
  5
822
330
7DC
100
AcDbEntity
  8
0
100
AcDbHatch
 10
0.0
 20
0.0
 30
0.0
210
0.0
220
0.0
230
1.0
  2
SOLID
 70
     1
 71
     0
 91
        7
 92
        1
 93
       15
 72
     1
 10
17.35421273582223
 20
2.350069633326415
 11
17.46475713030979
 21
2.008823893821337
 72
     1
 10
17.46475713030979
 20
2.008823893821337
 11
17.58491408083974
 21
2.008823893821337
 72
     1
 10
17.58491408083974
 20
2.008823893821337
 11
17.66501871452638
 21
2.233116868143925
 72
     1
 10
17.66501871452638
 20
2.233116868143925
 11
17.74512334821302
 21
2.008823893821337
 72
     1
 10
17.74512334821302
 20
2.008823893821337
 11
17.86528029874298
 21
2.008823893821337
 72
     1
 10
17.86528029874298
 20
2.008823893821337
 11
17.97582469323053
 21
2.350069633326415
 72
     1
 10
17.97582469323053
 20
2.350069633326415
 11
17.87329076211164
 21
2.350069633326415
 72
     1
 10
17.87329076211164
 20
2.350069633326415
 11
17.80119659179366
 21
2.098541083550372
 72
     1
 10
17.80119659179366
 20
2.098541083550372
 11
17.79959449911993
 21
2.098541083550372
 72
     1
 10
17.79959449911993
 20
2.098541083550372
 11
17.71308149473836
 21
2.350069633326415
 72
     1
 10
17.71308149473836
 20
2.350069633326415
 11
17.6169559343144
 21
2.350069633326415
 72
     1
 10
17.6169559343144
 20
2.350069633326415
 11
17.53044292993283
 21
2.098541083550372
 72
     1
 10
17.53044292993283
 20
2.098541083550372
 11
17.52884083725909
 21
2.098541083550372
 72
     1
 10
17.52884083725909
 20
2.098541083550372
 11
17.45674666694112
 21
2.350069633326415
 72
     1
 10
17.45674666694112
 20
2.350069633326415
 11
17.35421273582223
 21
2.350069633326415
 97
        0
 92
        1
 93
        6
 72
     1
 10
18.20011766755312
 20
2.350069633326415
 11
18.20011766755312
 21
2.008823893821337
 72
     1
 10
18.20011766755312
 20
2.008823893821337
 11
18.53976131438447
 21
2.008823893821337
 72
     1
 10
18.53976131438447
 20
2.008823893821337
 11
18.53976131438447
 21
2.09693899087664
 72
     1
 10
18.53976131438447
 20
2.09693899087664
 11
18.30425369134575
 21
2.09693899087664
 72
     1
 10
18.30425369134575
 20
2.09693899087664
 11
18.30425369134575
 21
2.350069633326415
 72
     1
 10
18.30425369134575
 20
2.350069633326415
 11
18.20011766755312
 21
2.350069633326415
 97
        0
 92
        1
 93
       34
 72
     1
 10
18.58782409459645
 20
2.350069633326415
 11
18.58782409459645
 21
2.008823893821337
 72
     1
 10
18.58782409459645
 20
2.008823893821337
 11
18.9034363513218
 21
2.008823893821337
 72
     1
 10
18.9034363513218
 20
2.008823893821337
 11
18.93868239014392
 21
2.010425986495071
 72
     1
 10
18.93868239014392
 20
2.010425986495071
 11
18.95470331688125
 21
2.012028079168804
 72
     1
 10
18.95470331688125
 20
2.012028079168804
 11
18.96912215094484
 21
2.015232264516269
 72
     1
 10
18.96912215094484
 20
2.015232264516269
 11
18.98193889233471
 21
2.018436449863734
 72
     1
 10
18.98193889233471
 20
2.018436449863734
 11
18.99315354105084
 21
2.023242727884933
 72
     1
 10
18.99315354105084
 20
2.023242727884933
 11
19.00276609709323
 21
2.029651098579865
 72
     1
 10
19.00276609709323
 20
2.029651098579865
 11
19.01237865313563
 21
2.036059469274796
 72
     1
 10
19.01237865313563
 20
2.036059469274796
 11
19.0203891165043
 21
2.044069932643458
 72
     1
 10
19.0203891165043
 20
2.044069932643458
 11
19.02679748719922
 21
2.052080396012122
 72
     1
 10
19.02679748719922
 20
2.052080396012122
 11
19.03160376522042
 21
2.061692952054518
 72
     1
 10
19.03160376522042
 20
2.061692952054518
 11
19.03641004324162
 21
2.072907600770648
 72
     1
 10
19.03641004324162
 20
2.072907600770648
 11
19.03961422858909
 21
2.08572434216051
 72
     1
 10
19.03961422858909
 20
2.08572434216051
 11
19.04281841393655
 21
2.098541083550372
 72
     1
 10
19.04281841393655
 20
2.098541083550372
 11
19.04281841393655
 21
2.111357824940234
 72
     1
 10
19.04281841393655
 20
2.111357824940234
 11
19.04442050661028
 21
2.127378751677562
 72
     1
 10
19.04442050661028
 20
2.127378751677562
 11
19.04442050661028
 21
2.231514775470191
 72
     1
 10
19.04442050661028
 20
2.231514775470191
 11
19.04281841393655
 21
2.245933609533786
 72
     1
 10
19.04281841393655
 20
2.245933609533786
 11
19.04281841393655
 21
2.260352443597381
 72
     1
 10
19.04281841393655
 20
2.260352443597381
 11
19.03961422858909
 21
2.273169184987243
 72
     1
 10
19.03961422858909
 20
2.273169184987243
 11
19.03641004324162
 21
2.284383833703372
 72
     1
 10
19.03641004324162
 20
2.284383833703372
 11
19.03160376522042
 21
2.295598482419501
 72
     1
 10
19.03160376522042
 20
2.295598482419501
 11
19.02679748719922
 21
2.305211038461899
 72
     1
 10
19.02679748719922
 20
2.305211038461899
 11
19.0203891165043
 21
2.313221501830561
 72
     1
 10
19.0203891165043
 20
2.313221501830561
 11
19.01237865313563
 21
2.321231965199226
 72
     1
 10
19.01237865313563
 20
2.321231965199226
 11
19.00276609709323
 21
2.327640335894157
 72
     1
 10
19.00276609709323
 20
2.327640335894157
 11
18.99315354105084
 21
2.334048706589088
 72
     1
 10
18.99315354105084
 20
2.334048706589088
 11
18.98193889233471
 21
2.338854984610286
 72
     1
 10
18.98193889233471
 20
2.338854984610286
 11
18.96912215094484
 21
2.342059169957752
 72
     1
 10
18.96912215094484
 20
2.342059169957752
 11
18.95470331688125
 21
2.345263355305217
 72
     1
 10
18.95470331688125
 20
2.345263355305217
 11
18.93868239014392
 21
2.348467540652683
 72
     1
 10
18.93868239014392
 20
2.348467540652683
 11
18.9034363513218
 21
2.350069633326415
 72
     1
 10
18.9034363513218
 20
2.350069633326415
 11
18.58782409459645
 21
2.350069633326415
 97
        0
 92
       16
 93
       20
 72
     1
 10
18.69196011838908
 20
2.09693899087664
 11
18.69196011838908
 21
2.265158721618579
 72
     1
 10
18.69196011838908
 20
2.265158721618579
 11
18.87780286854208
 21
2.265158721618579
 72
     1
 10
18.87780286854208
 20
2.265158721618579
 11
18.89222170260567
 21
2.263556628944846
 72
     1
 10
18.89222170260567
 20
2.263556628944846
 11
18.90664053666927
 21
2.261954536271114
 72
     1
 10
18.90664053666927
 20
2.261954536271114
 11
18.91625309271167
 21
2.258750350923648
 72
     1
 10
18.91625309271167
 20
2.258750350923648
 11
18.92586564875406
 21
2.252341980228717
 72
     1
 10
18.92586564875406
 20
2.252341980228717
 11
18.93227401944899
 21
2.244331516860054
 72
     1
 10
18.93227401944899
 20
2.244331516860054
 11
18.93547820479646
 21
2.233116868143925
 72
     1
 10
18.93547820479646
 20
2.233116868143925
 11
18.93868239014392
 21
2.220300126754062
 72
     1
 10
18.93868239014392
 20
2.220300126754062
 11
18.93868239014392
 21
2.202677107343002
 72
     1
 10
18.93868239014392
 20
2.202677107343002
 11
18.93868239014392
 21
2.157818512478484
 72
     1
 10
18.93868239014392
 20
2.157818512478484
 11
18.93868239014392
 21
2.140195493067424
 72
     1
 10
18.93868239014392
 20
2.140195493067424
 11
18.93547820479646
 21
2.127378751677562
 72
     1
 10
18.93547820479646
 20
2.127378751677562
 11
18.93227401944899
 21
2.116164102961432
 72
     1
 10
18.93227401944899
 20
2.116164102961432
 11
18.92586564875406
 21
2.108153639592769
 72
     1
 10
18.92586564875406
 20
2.108153639592769
 11
18.91625309271167
 21
2.103347361571571
 72
     1
 10
18.91625309271167
 20
2.103347361571571
 11
18.90664053666927
 21
2.098541083550372
 72
     1
 10
18.90664053666927
 20
2.098541083550372
 11
18.89222170260567
 21
2.09693899087664
 72
     1
 10
18.89222170260567
 20
2.09693899087664
 11
18.87780286854208
 21
2.09693899087664
 72
     1
 10
18.87780286854208
 20
2.09693899087664
 11
18.69196011838908
 21
2.09693899087664
 97
        0
 92
        1
 93
       11
 72
     1
 10
19.5490796988361
 20
2.350069633326415
 11
19.5490796988361
 21
2.008823893821337
 72
     1
 10
19.5490796988361
 20
2.008823893821337
 11
19.65321572262874
 21
2.008823893821337
 72
     1
 10
19.65321572262874
 20
2.008823893821337
 11
19.65321572262874
 21
2.255546165576183
 72
     1
 10
19.65321572262874
 20
2.255546165576183
 11
19.85027312149786
 21
2.008823893821337
 72
     1
 10
19.85027312149786
 20
2.008823893821337
 11
20.01208448154487
 21
2.008823893821337
 72
     1
 10
20.01208448154487
 20
2.008823893821337
 11
20.01208448154487
 21
2.350069633326415
 72
     1
 10
20.01208448154487
 20
2.350069633326415
 11
19.90794845775224
 21
2.350069633326415
 72
     1
 10
19.90794845775224
 20
2.350069633326415
 11
19.90794845775224
 21
2.101745268897839
 72
     1
 10
19.90794845775224
 20
2.101745268897839
 11
19.90634636507851
 21
2.101745268897839
 72
     1
 10
19.90634636507851
 20
2.101745268897839
 11
19.71089105888311
 21
2.350069633326415
 72
     1
 10
19.71089105888311
 20
2.350069633326415
 11
19.5490796988361
 21
2.350069633326415
 97
        0
 92
        1
 93
       12
 72
     1
 10
19.10690212088587
 20
2.350069633326415
 11
19.10690212088587
 21
2.008823893821337
 72
     1
 10
19.10690212088587
 20
2.008823893821337
 11
19.48499599188679
 21
2.008823893821337
 72
     1
 10
19.48499599188679
 20
2.008823893821337
 11
19.48499599188679
 21
2.090530620181708
 72
     1
 10
19.48499599188679
 20
2.090530620181708
 11
19.21103814467849
 21
2.090530620181708
 72
     1
 10
19.21103814467849
 20
2.090530620181708
 11
19.21103814467849
 21
2.145001771088622
 72
     1
 10
19.21103814467849
 20
2.145001771088622
 11
19.465770879802
 21
2.145001771088622
 72
     1
 10
19.465770879802
 20
2.145001771088622
 11
19.465770879802
 21
2.215493848732864
 72
     1
 10
19.465770879802
 20
2.215493848732864
 11
19.21103814467849
 21
2.215493848732864
 72
     1
 10
19.21103814467849
 20
2.215493848732864
 11
19.21103814467849
 21
2.269964999639777
 72
     1
 10
19.21103814467849
 20
2.269964999639777
 11
19.4801897138656
 21
2.269964999639777
 72
     1
 10
19.4801897138656
 20
2.269964999639777
 11
19.4801897138656
 21
2.350069633326415
 72
     1
 10
19.4801897138656
 20
2.350069633326415
 11
19.10690212088587
 21
2.350069633326415
 97
        0
 92
        1
 93
        4
 72
     1
 10
18.01908119542132
 20
2.350069633326415
 11
18.01908119542132
 21
2.008823893821337
 72
     1
 10
18.01908119542132
 20
2.008823893821337
 11
18.12321721921395
 21
2.008823893821337
 72
     1
 10
18.12321721921395
 20
2.008823893821337
 11
18.12321721921395
 21
2.350069633326415
 72
     1
 10
18.12321721921395
 20
2.350069633326415
 11
18.01908119542132
 21
2.350069633326415
 97
        0
 75
     0
 76
     1
 98
        1
 10
0.0
 20
-0.0000000000000036
450
        0
451
        0
460
0.0
461
0.0
452
        1
462
1.0
453
        2
463
0.0
 63
     5
421
      255
463
1.0
 63
     7
421
 16777215
470
LINEAR
1001
ACAD
1010
0.0
1020
0.0
1030
0.0
  0
LINE
  5
823
330
7DC
100
AcDbEntity
  8
0
370
     0
100
AcDbLine
 10
18.01908119542132
 20
2.008823893821337
 30
0.0
 11
18.12321721921395
 21
2.008823893821337
 31
0.0
  0
LINE
  5
824
330
7DC
100
AcDbEntity
  8
0
370
     0
100
AcDbLine
 10
18.12321721921395
 20
2.008823893821337
 30
0.0
 11
18.12321721921395
 21
2.350069633326415
 31
0.0
  0
LINE
  5
825
330
7DC
100
AcDbEntity
  8
0
370
     0
100
AcDbLine
 10
18.12321721921395
 20
2.350069633326415
 30
0.0
 11
18.01908119542132
 21
2.350069633326415
 31
0.0
  0
LINE
  5
826
330
7DC
100
AcDbEntity
  8
0
370
     0
100
AcDbLine
 10
18.01908119542132
 20
2.350069633326415
 30
0.0
 11
18.01908119542132
 21
2.008823893821337
 31
0.0
  0
LINE
  5
827
330
7DC
100
AcDbEntity
  8
0
370
     0
100
AcDbLine
 10
18.01908119542132
 20
2.008823893821337
 30
0.0
 11
18.01908119542132
 21
2.008823893821337
 31
0.0
  0
LINE
  5
828
330
7DC
100
AcDbEntity
  8
0
370
     0
100
AcDbLine
 10
18.01908119542132
 20
2.008823893821337
 30
0.0
 11
18.01908119542132
 21
2.008823893821337
 31
0.0
  0
LINE
  5
829
330
7DC
100
AcDbEntity
  8
0
370
     0
100
AcDbLine
 10
19.10690212088587
 20
2.008823893821337
 30
0.0
 11
19.48499599188679
 21
2.008823893821337
 31
0.0
  0
LINE
  5
82A
330
7DC
100
AcDbEntity
  8
0
370
     0
100
AcDbLine
 10
19.48499599188679
 20
2.008823893821337
 30
0.0
 11
19.48499599188679
 21
2.090530620181708
 31
0.0
  0
LINE
  5
82B
330
7DC
100
AcDbEntity
  8
0
370
     0
100
AcDbLine
 10
19.48499599188679
 20
2.090530620181708
 30
0.0
 11
19.21103814467849
 21
2.090530620181708
 31
0.0
  0
LINE
  5
82C
330
7DC
100
AcDbEntity
  8
0
370
     0
100
AcDbLine
 10
19.21103814467849
 20
2.090530620181708
 30
0.0
 11
19.21103814467849
 21
2.145001771088622
 31
0.0
  0
LINE
  5
82D
330
7DC
100
AcDbEntity
  8
0
370
     0
100
AcDbLine
 10
19.21103814467849
 20
2.145001771088622
 30
0.0
 11
19.465770879802
 21
2.145001771088622
 31
0.0
  0
LINE
  5
82E
330
7DC
100
AcDbEntity
  8
0
370
     0
100
AcDbLine
 10
19.465770879802
 20
2.145001771088622
 30
0.0
 11
19.465770879802
 21
2.215493848732864
 31
0.0
  0
LINE
  5
82F
330
7DC
100
AcDbEntity
  8
0
370
     0
100
AcDbLine
 10
19.465770879802
 20
2.215493848732864
 30
0.0
 11
19.21103814467849
 21
2.215493848732864
 31
0.0
  0
LINE
  5
830
330
7DC
100
AcDbEntity
  8
0
370
     0
100
AcDbLine
 10
19.21103814467849
 20
2.215493848732864
 30
0.0
 11
19.21103814467849
 21
2.269964999639777
 31
0.0
  0
LINE
  5
831
330
7DC
100
AcDbEntity
  8
0
370
     0
100
AcDbLine
 10
19.21103814467849
 20
2.269964999639777
 30
0.0
 11
19.4801897138656
 21
2.269964999639777
 31
0.0
  0
LINE
  5
832
330
7DC
100
AcDbEntity
  8
0
370
     0
100
AcDbLine
 10
19.4801897138656
 20
2.269964999639777
 30
0.0
 11
19.4801897138656
 21
2.350069633326415
 31
0.0
  0
LINE
  5
833
330
7DC
100
AcDbEntity
  8
0
370
     0
100
AcDbLine
 10
19.4801897138656
 20
2.350069633326415
 30
0.0
 11
19.10690212088587
 21
2.350069633326415
 31
0.0
  0
LINE
  5
834
330
7DC
100
AcDbEntity
  8
0
370
     0
100
AcDbLine
 10
19.10690212088587
 20
2.350069633326415
 30
0.0
 11
19.10690212088587
 21
2.008823893821337
 31
0.0
  0
LINE
  5
835
330
7DC
100
AcDbEntity
  8
0
370
     0
100
AcDbLine
 10
19.10690212088587
 20
2.008823893821337
 30
0.0
 11
19.10690212088587
 21
2.008823893821337
 31
0.0
  0
LINE
  5
836
330
7DC
100
AcDbEntity
  8
0
370
     0
100
AcDbLine
 10
19.10690212088587
 20
2.008823893821337
 30
0.0
 11
19.10690212088587
 21
2.008823893821337
 31
0.0
  0
LINE
  5
837
330
7DC
100
AcDbEntity
  8
0
370
     0
100
AcDbLine
 10
19.5490796988361
 20
2.008823893821337
 30
0.0
 11
19.65321572262874
 21
2.008823893821337
 31
0.0
  0
LINE
  5
838
330
7DC
100
AcDbEntity
  8
0
370
     0
100
AcDbLine
 10
19.65321572262874
 20
2.008823893821337
 30
0.0
 11
19.65321572262874
 21
2.255546165576183
 31
0.0
  0
LINE
  5
839
330
7DC
100
AcDbEntity
  8
0
370
     0
100
AcDbLine
 10
19.65321572262874
 20
2.255546165576183
 30
0.0
 11
19.65321572262874
 21
2.255546165576183
 31
0.0
  0
LINE
  5
83A
330
7DC
100
AcDbEntity
  8
0
370
     0
100
AcDbLine
 10
19.65321572262874
 20
2.255546165576183
 30
0.0
 11
19.85027312149786
 21
2.008823893821337
 31
0.0
  0
LINE
  5
83B
330
7DC
100
AcDbEntity
  8
0
370
     0
100
AcDbLine
 10
19.85027312149786
 20
2.008823893821337
 30
0.0
 11
20.01208448154487
 21
2.008823893821337
 31
0.0
  0
LINE
  5
83C
330
7DC
100
AcDbEntity
  8
0
370
     0
100
AcDbLine
 10
20.01208448154487
 20
2.008823893821337
 30
0.0
 11
20.01208448154487
 21
2.350069633326415
 31
0.0
  0
LINE
  5
83D
330
7DC
100
AcDbEntity
  8
0
370
     0
100
AcDbLine
 10
20.01208448154487
 20
2.350069633326415
 30
0.0
 11
19.90794845775224
 21
2.350069633326415
 31
0.0
  0
LINE
  5
83E
330
7DC
100
AcDbEntity
  8
0
370
     0
100
AcDbLine
 10
19.90794845775224
 20
2.350069633326415
 30
0.0
 11
19.90794845775224
 21
2.101745268897839
 31
0.0
  0
LINE
  5
83F
330
7DC
100
AcDbEntity
  8
0
370
     0
100
AcDbLine
 10
19.90794845775224
 20
2.101745268897839
 30
0.0
 11
19.90634636507851
 21
2.101745268897839
 31
0.0
  0
LINE
  5
840
330
7DC
100
AcDbEntity
  8
0
370
     0
100
AcDbLine
 10
19.90634636507851
 20
2.101745268897839
 30
0.0
 11
19.71089105888311
 21
2.350069633326415
 31
0.0
  0
LINE
  5
841
330
7DC
100
AcDbEntity
  8
0
370
     0
100
AcDbLine
 10
19.71089105888311
 20
2.350069633326415
 30
0.0
 11
19.5490796988361
 21
2.350069633326415
 31
0.0
  0
LINE
  5
842
330
7DC
100
AcDbEntity
  8
0
370
     0
100
AcDbLine
 10
19.5490796988361
 20
2.350069633326415
 30
0.0
 11
19.5490796988361
 21
2.008823893821337
 31
0.0
  0
LINE
  5
843
330
7DC
100
AcDbEntity
  8
0
370
     0
100
AcDbLine
 10
19.5490796988361
 20
2.008823893821337
 30
0.0
 11
19.5490796988361
 21
2.008823893821337
 31
0.0
  0
LINE
  5
844
330
7DC
100
AcDbEntity
  8
0
370
     0
100
AcDbLine
 10
19.5490796988361
 20
2.008823893821337
 30
0.0
 11
19.5490796988361
 21
2.008823893821337
 31
0.0
  0
LINE
  5
845
330
7DC
100
AcDbEntity
  8
0
370
     0
100
AcDbLine
 10
18.69196011838908
 20
2.265158721618579
 30
0.0
 11
18.87780286854208
 21
2.265158721618579
 31
0.0
  0
LINE
  5
846
330
7DC
100
AcDbEntity
  8
0
370
     0
100
AcDbLine
 10
18.87780286854208
 20
2.265158721618579
 30
0.0
 11
18.87780286854208
 21
2.265158721618579
 31
0.0
  0
LINE
  5
847
330
7DC
100
AcDbEntity
  8
0
370
     0
100
AcDbLine
 10
18.87780286854208
 20
2.265158721618579
 30
0.0
 11
18.89222170260567
 21
2.263556628944846
 31
0.0
  0
LINE
  5
848
330
7DC
100
AcDbEntity
  8
0
370
     0
100
AcDbLine
 10
18.89222170260567
 20
2.263556628944846
 30
0.0
 11
18.90664053666927
 21
2.261954536271114
 31
0.0
  0
LINE
  5
849
330
7DC
100
AcDbEntity
  8
0
370
     0
100
AcDbLine
 10
18.90664053666927
 20
2.261954536271114
 30
0.0
 11
18.91625309271167
 21
2.258750350923648
 31
0.0
  0
LINE
  5
84A
330
7DC
100
AcDbEntity
  8
0
370
     0
100
AcDbLine
 10
18.91625309271167
 20
2.258750350923648
 30
0.0
 11
18.92586564875406
 21
2.252341980228717
 31
0.0
  0
LINE
  5
84B
330
7DC
100
AcDbEntity
  8
0
370
     0
100
AcDbLine
 10
18.92586564875406
 20
2.252341980228717
 30
0.0
 11
18.93227401944899
 21
2.244331516860054
 31
0.0
  0
LINE
  5
84C
330
7DC
100
AcDbEntity
  8
0
370
     0
100
AcDbLine
 10
18.93227401944899
 20
2.244331516860054
 30
0.0
 11
18.93547820479646
 21
2.233116868143925
 31
0.0
  0
LINE
  5
84D
330
7DC
100
AcDbEntity
  8
0
370
     0
100
AcDbLine
 10
18.93547820479646
 20
2.233116868143925
 30
0.0
 11
18.93868239014392
 21
2.220300126754062
 31
0.0
  0
LINE
  5
84E
330
7DC
100
AcDbEntity
  8
0
370
     0
100
AcDbLine
 10
18.93868239014392
 20
2.220300126754062
 30
0.0
 11
18.93868239014392
 21
2.202677107343002
 31
0.0
  0
LINE
  5
84F
330
7DC
100
AcDbEntity
  8
0
370
     0
100
AcDbLine
 10
18.93868239014392
 20
2.202677107343002
 30
0.0
 11
18.93868239014392
 21
2.157818512478484
 31
0.0
  0
LINE
  5
850
330
7DC
100
AcDbEntity
  8
0
370
     0
100
AcDbLine
 10
18.93868239014392
 20
2.157818512478484
 30
0.0
 11
18.93868239014392
 21
2.157818512478484
 31
0.0
  0
LINE
  5
851
330
7DC
100
AcDbEntity
  8
0
370
     0
100
AcDbLine
 10
18.93868239014392
 20
2.157818512478484
 30
0.0
 11
18.93868239014392
 21
2.140195493067424
 31
0.0
  0
LINE
  5
852
330
7DC
100
AcDbEntity
  8
0
370
     0
100
AcDbLine
 10
18.93868239014392
 20
2.140195493067424
 30
0.0
 11
18.93547820479646
 21
2.127378751677562
 31
0.0
  0
LINE
  5
853
330
7DC
100
AcDbEntity
  8
0
370
     0
100
AcDbLine
 10
18.93547820479646
 20
2.127378751677562
 30
0.0
 11
18.93227401944899
 21
2.116164102961432
 31
0.0
  0
LINE
  5
854
330
7DC
100
AcDbEntity
  8
0
370
     0
100
AcDbLine
 10
18.93227401944899
 20
2.116164102961432
 30
0.0
 11
18.92586564875406
 21
2.108153639592769
 31
0.0
  0
LINE
  5
855
330
7DC
100
AcDbEntity
  8
0
370
     0
100
AcDbLine
 10
18.92586564875406
 20
2.108153639592769
 30
0.0
 11
18.91625309271167
 21
2.103347361571571
 31
0.0
  0
LINE
  5
856
330
7DC
100
AcDbEntity
  8
0
370
     0
100
AcDbLine
 10
18.91625309271167
 20
2.103347361571571
 30
0.0
 11
18.90664053666927
 21
2.098541083550372
 31
0.0
  0
LINE
  5
857
330
7DC
100
AcDbEntity
  8
0
370
     0
100
AcDbLine
 10
18.90664053666927
 20
2.098541083550372
 30
0.0
 11
18.89222170260567
 21
2.09693899087664
 31
0.0
  0
LINE
  5
858
330
7DC
100
AcDbEntity
  8
0
370
     0
100
AcDbLine
 10
18.89222170260567
 20
2.09693899087664
 30
0.0
 11
18.87780286854208
 21
2.09693899087664
 31
0.0
  0
LINE
  5
859
330
7DC
100
AcDbEntity
  8
0
370
     0
100
AcDbLine
 10
18.87780286854208
 20
2.09693899087664
 30
0.0
 11
18.69196011838908
 21
2.09693899087664
 31
0.0
  0
LINE
  5
85A
330
7DC
100
AcDbEntity
  8
0
370
     0
100
AcDbLine
 10
18.69196011838908
 20
2.09693899087664
 30
0.0
 11
18.69196011838908
 21
2.265158721618579
 31
0.0
  0
LINE
  5
85B
330
7DC
100
AcDbEntity
  8
0
370
     0
100
AcDbLine
 10
18.69196011838908
 20
2.265158721618579
 30
0.0
 11
18.69196011838908
 21
2.265158721618579
 31
0.0
  0
LINE
  5
85C
330
7DC
100
AcDbEntity
  8
0
370
     0
100
AcDbLine
 10
18.69196011838908
 20
2.265158721618579
 30
0.0
 11
18.69196011838908
 21
2.265158721618579
 31
0.0
  0
LINE
  5
85D
330
7DC
100
AcDbEntity
  8
0
370
     0
100
AcDbLine
 10
18.58782409459645
 20
2.008823893821337
 30
0.0
 11
18.9034363513218
 21
2.008823893821337
 31
0.0
  0
LINE
  5
85E
330
7DC
100
AcDbEntity
  8
0
370
     0
100
AcDbLine
 10
18.9034363513218
 20
2.008823893821337
 30
0.0
 11
18.9034363513218
 21
2.008823893821337
 31
0.0
  0
LINE
  5
85F
330
7DC
100
AcDbEntity
  8
0
370
     0
100
AcDbLine
 10
18.9034363513218
 20
2.008823893821337
 30
0.0
 11
18.93868239014392
 21
2.010425986495071
 31
0.0
  0
LINE
  5
860
330
7DC
100
AcDbEntity
  8
0
370
     0
100
AcDbLine
 10
18.93868239014392
 20
2.010425986495071
 30
0.0
 11
18.95470331688125
 21
2.012028079168804
 31
0.0
  0
LINE
  5
861
330
7DC
100
AcDbEntity
  8
0
370
     0
100
AcDbLine
 10
18.95470331688125
 20
2.012028079168804
 30
0.0
 11
18.96912215094484
 21
2.015232264516269
 31
0.0
  0
LINE
  5
862
330
7DC
100
AcDbEntity
  8
0
370
     0
100
AcDbLine
 10
18.96912215094484
 20
2.015232264516269
 30
0.0
 11
18.98193889233471
 21
2.018436449863734
 31
0.0
  0
LINE
  5
863
330
7DC
100
AcDbEntity
  8
0
370
     0
100
AcDbLine
 10
18.98193889233471
 20
2.018436449863734
 30
0.0
 11
18.99315354105084
 21
2.023242727884933
 31
0.0
  0
LINE
  5
864
330
7DC
100
AcDbEntity
  8
0
370
     0
100
AcDbLine
 10
18.99315354105084
 20
2.023242727884933
 30
0.0
 11
19.00276609709323
 21
2.029651098579865
 31
0.0
  0
LINE
  5
865
330
7DC
100
AcDbEntity
  8
0
370
     0
100
AcDbLine
 10
19.00276609709323
 20
2.029651098579865
 30
0.0
 11
19.01237865313563
 21
2.036059469274796
 31
0.0
  0
LINE
  5
866
330
7DC
100
AcDbEntity
  8
0
370
     0
100
AcDbLine
 10
19.01237865313563
 20
2.036059469274796
 30
0.0
 11
19.0203891165043
 21
2.044069932643458
 31
0.0
  0
LINE
  5
867
330
7DC
100
AcDbEntity
  8
0
370
     0
100
AcDbLine
 10
19.0203891165043
 20
2.044069932643458
 30
0.0
 11
19.02679748719922
 21
2.052080396012122
 31
0.0
  0
LINE
  5
868
330
7DC
100
AcDbEntity
  8
0
370
     0
100
AcDbLine
 10
19.02679748719922
 20
2.052080396012122
 30
0.0
 11
19.03160376522042
 21
2.061692952054518
 31
0.0
  0
LINE
  5
869
330
7DC
100
AcDbEntity
  8
0
370
     0
100
AcDbLine
 10
19.03160376522042
 20
2.061692952054518
 30
0.0
 11
19.03641004324162
 21
2.072907600770648
 31
0.0
  0
LINE
  5
86A
330
7DC
100
AcDbEntity
  8
0
370
     0
100
AcDbLine
 10
19.03641004324162
 20
2.072907600770648
 30
0.0
 11
19.03961422858909
 21
2.08572434216051
 31
0.0
  0
LINE
  5
86B
330
7DC
100
AcDbEntity
  8
0
370
     0
100
AcDbLine
 10
19.03961422858909
 20
2.08572434216051
 30
0.0
 11
19.04281841393655
 21
2.098541083550372
 31
0.0
  0
LINE
  5
86C
330
7DC
100
AcDbEntity
  8
0
370
     0
100
AcDbLine
 10
19.04281841393655
 20
2.098541083550372
 30
0.0
 11
19.04281841393655
 21
2.111357824940234
 31
0.0
  0
LINE
  5
86D
330
7DC
100
AcDbEntity
  8
0
370
     0
100
AcDbLine
 10
19.04281841393655
 20
2.111357824940234
 30
0.0
 11
19.04442050661028
 21
2.127378751677562
 31
0.0
  0
LINE
  5
86E
330
7DC
100
AcDbEntity
  8
0
370
     0
100
AcDbLine
 10
19.04442050661028
 20
2.127378751677562
 30
0.0
 11
19.04442050661028
 21
2.231514775470191
 31
0.0
  0
LINE
  5
86F
330
7DC
100
AcDbEntity
  8
0
370
     0
100
AcDbLine
 10
19.04442050661028
 20
2.231514775470191
 30
0.0
 11
19.04442050661028
 21
2.231514775470191
 31
0.0
  0
LINE
  5
870
330
7DC
100
AcDbEntity
  8
0
370
     0
100
AcDbLine
 10
19.04442050661028
 20
2.231514775470191
 30
0.0
 11
19.04281841393655
 21
2.245933609533786
 31
0.0
  0
LINE
  5
871
330
7DC
100
AcDbEntity
  8
0
370
     0
100
AcDbLine
 10
19.04281841393655
 20
2.245933609533786
 30
0.0
 11
19.04281841393655
 21
2.260352443597381
 31
0.0
  0
LINE
  5
872
330
7DC
100
AcDbEntity
  8
0
370
     0
100
AcDbLine
 10
19.04281841393655
 20
2.260352443597381
 30
0.0
 11
19.03961422858909
 21
2.273169184987243
 31
0.0
  0
LINE
  5
873
330
7DC
100
AcDbEntity
  8
0
370
     0
100
AcDbLine
 10
19.03961422858909
 20
2.273169184987243
 30
0.0
 11
19.03641004324162
 21
2.284383833703372
 31
0.0
  0
LINE
  5
874
330
7DC
100
AcDbEntity
  8
0
370
     0
100
AcDbLine
 10
19.03641004324162
 20
2.284383833703372
 30
0.0
 11
19.03160376522042
 21
2.295598482419501
 31
0.0
  0
LINE
  5
875
330
7DC
100
AcDbEntity
  8
0
370
     0
100
AcDbLine
 10
19.03160376522042
 20
2.295598482419501
 30
0.0
 11
19.02679748719922
 21
2.305211038461899
 31
0.0
  0
LINE
  5
876
330
7DC
100
AcDbEntity
  8
0
370
     0
100
AcDbLine
 10
19.02679748719922
 20
2.305211038461899
 30
0.0
 11
19.0203891165043
 21
2.313221501830561
 31
0.0
  0
LINE
  5
877
330
7DC
100
AcDbEntity
  8
0
370
     0
100
AcDbLine
 10
19.0203891165043
 20
2.313221501830561
 30
0.0
 11
19.01237865313563
 21
2.321231965199226
 31
0.0
  0
LINE
  5
878
330
7DC
100
AcDbEntity
  8
0
370
     0
100
AcDbLine
 10
19.01237865313563
 20
2.321231965199226
 30
0.0
 11
19.00276609709323
 21
2.327640335894157
 31
0.0
  0
LINE
  5
879
330
7DC
100
AcDbEntity
  8
0
370
     0
100
AcDbLine
 10
19.00276609709323
 20
2.327640335894157
 30
0.0
 11
18.99315354105084
 21
2.334048706589088
 31
0.0
  0
LINE
  5
87A
330
7DC
100
AcDbEntity
  8
0
370
     0
100
AcDbLine
 10
18.99315354105084
 20
2.334048706589088
 30
0.0
 11
18.98193889233471
 21
2.338854984610286
 31
0.0
  0
LINE
  5
87B
330
7DC
100
AcDbEntity
  8
0
370
     0
100
AcDbLine
 10
18.98193889233471
 20
2.338854984610286
 30
0.0
 11
18.96912215094484
 21
2.342059169957752
 31
0.0
  0
LINE
  5
87C
330
7DC
100
AcDbEntity
  8
0
370
     0
100
AcDbLine
 10
18.96912215094484
 20
2.342059169957752
 30
0.0
 11
18.95470331688125
 21
2.345263355305217
 31
0.0
  0
LINE
  5
87D
330
7DC
100
AcDbEntity
  8
0
370
     0
100
AcDbLine
 10
18.95470331688125
 20
2.345263355305217
 30
0.0
 11
18.93868239014392
 21
2.348467540652683
 31
0.0
  0
LINE
  5
87E
330
7DC
100
AcDbEntity
  8
0
370
     0
100
AcDbLine
 10
18.93868239014392
 20
2.348467540652683
 30
0.0
 11
18.9034363513218
 21
2.350069633326415
 31
0.0
  0
LINE
  5
87F
330
7DC
100
AcDbEntity
  8
0
370
     0
100
AcDbLine
 10
18.9034363513218
 20
2.350069633326415
 30
0.0
 11
18.58782409459645
 21
2.350069633326415
 31
0.0
  0
LINE
  5
880
330
7DC
100
AcDbEntity
  8
0
370
     0
100
AcDbLine
 10
18.58782409459645
 20
2.350069633326415
 30
0.0
 11
18.58782409459645
 21
2.008823893821337
 31
0.0
  0
LINE
  5
881
330
7DC
100
AcDbEntity
  8
0
370
     0
100
AcDbLine
 10
18.58782409459645
 20
2.008823893821337
 30
0.0
 11
18.58782409459645
 21
2.008823893821337
 31
0.0
  0
LINE
  5
882
330
7DC
100
AcDbEntity
  8
0
370
     0
100
AcDbLine
 10
18.58782409459645
 20
2.008823893821337
 30
0.0
 11
18.58782409459645
 21
2.008823893821337
 31
0.0
  0
LINE
  5
883
330
7DC
100
AcDbEntity
  8
0
370
     0
100
AcDbLine
 10
18.20011766755312
 20
2.008823893821337
 30
0.0
 11
18.53976131438447
 21
2.008823893821337
 31
0.0
  0
LINE
  5
884
330
7DC
100
AcDbEntity
  8
0
370
     0
100
AcDbLine
 10
18.53976131438447
 20
2.008823893821337
 30
0.0
 11
18.53976131438447
 21
2.09693899087664
 31
0.0
  0
LINE
  5
885
330
7DC
100
AcDbEntity
  8
0
370
     0
100
AcDbLine
 10
18.53976131438447
 20
2.09693899087664
 30
0.0
 11
18.30425369134575
 21
2.09693899087664
 31
0.0
  0
LINE
  5
886
330
7DC
100
AcDbEntity
  8
0
370
     0
100
AcDbLine
 10
18.30425369134575
 20
2.09693899087664
 30
0.0
 11
18.30425369134575
 21
2.350069633326415
 31
0.0
  0
LINE
  5
887
330
7DC
100
AcDbEntity
  8
0
370
     0
100
AcDbLine
 10
18.30425369134575
 20
2.350069633326415
 30
0.0
 11
18.20011766755312
 21
2.350069633326415
 31
0.0
  0
LINE
  5
888
330
7DC
100
AcDbEntity
  8
0
370
     0
100
AcDbLine
 10
18.20011766755312
 20
2.350069633326415
 30
0.0
 11
18.20011766755312
 21
2.008823893821337
 31
0.0
  0
LINE
  5
889
330
7DC
100
AcDbEntity
  8
0
370
     0
100
AcDbLine
 10
18.20011766755312
 20
2.008823893821337
 30
0.0
 11
18.20011766755312
 21
2.008823893821337
 31
0.0
  0
LINE
  5
88A
330
7DC
100
AcDbEntity
  8
0
370
     0
100
AcDbLine
 10
18.20011766755312
 20
2.008823893821337
 30
0.0
 11
18.20011766755312
 21
2.008823893821337
 31
0.0
  0
LINE
  5
88B
330
7DC
100
AcDbEntity
  8
0
370
     0
100
AcDbLine
 10
17.46475713030979
 20
2.008823893821337
 30
0.0
 11
17.58491408083974
 21
2.008823893821337
 31
0.0
  0
LINE
  5
88C
330
7DC
100
AcDbEntity
  8
0
370
     0
100
AcDbLine
 10
17.58491408083974
 20
2.008823893821337
 30
0.0
 11
17.66501871452638
 21
2.233116868143925
 31
0.0
  0
LINE
  5
88D
330
7DC
100
AcDbEntity
  8
0
370
     0
100
AcDbLine
 10
17.66501871452638
 20
2.233116868143925
 30
0.0
 11
17.66501871452638
 21
2.233116868143925
 31
0.0
  0
LINE
  5
88E
330
7DC
100
AcDbEntity
  8
0
370
     0
100
AcDbLine
 10
17.66501871452638
 20
2.233116868143925
 30
0.0
 11
17.74512334821302
 21
2.008823893821337
 31
0.0
  0
LINE
  5
88F
330
7DC
100
AcDbEntity
  8
0
370
     0
100
AcDbLine
 10
17.74512334821302
 20
2.008823893821337
 30
0.0
 11
17.86528029874298
 21
2.008823893821337
 31
0.0
  0
LINE
  5
890
330
7DC
100
AcDbEntity
  8
0
370
     0
100
AcDbLine
 10
17.86528029874298
 20
2.008823893821337
 30
0.0
 11
17.97582469323053
 21
2.350069633326415
 31
0.0
  0
LINE
  5
891
330
7DC
100
AcDbEntity
  8
0
370
     0
100
AcDbLine
 10
17.97582469323053
 20
2.350069633326415
 30
0.0
 11
17.87329076211164
 21
2.350069633326415
 31
0.0
  0
LINE
  5
892
330
7DC
100
AcDbEntity
  8
0
370
     0
100
AcDbLine
 10
17.87329076211164
 20
2.350069633326415
 30
0.0
 11
17.80119659179366
 21
2.098541083550372
 31
0.0
  0
LINE
  5
893
330
7DC
100
AcDbEntity
  8
0
370
     0
100
AcDbLine
 10
17.80119659179366
 20
2.098541083550372
 30
0.0
 11
17.79959449911993
 21
2.098541083550372
 31
0.0
  0
LINE
  5
894
330
7DC
100
AcDbEntity
  8
0
370
     0
100
AcDbLine
 10
17.79959449911993
 20
2.098541083550372
 30
0.0
 11
17.71308149473836
 21
2.350069633326415
 31
0.0
  0
LINE
  5
895
330
7DC
100
AcDbEntity
  8
0
370
     0
100
AcDbLine
 10
17.71308149473836
 20
2.350069633326415
 30
0.0
 11
17.6169559343144
 21
2.350069633326415
 31
0.0
  0
LINE
  5
896
330
7DC
100
AcDbEntity
  8
0
370
     0
100
AcDbLine
 10
17.6169559343144
 20
2.350069633326415
 30
0.0
 11
17.53044292993283
 21
2.098541083550372
 31
0.0
  0
LINE
  5
897
330
7DC
100
AcDbEntity
  8
0
370
     0
100
AcDbLine
 10
17.53044292993283
 20
2.098541083550372
 30
0.0
 11
17.52884083725909
 21
2.098541083550372
 31
0.0
  0
LINE
  5
898
330
7DC
100
AcDbEntity
  8
0
370
     0
100
AcDbLine
 10
17.52884083725909
 20
2.098541083550372
 30
0.0
 11
17.45674666694112
 21
2.350069633326415
 31
0.0
  0
LINE
  5
899
330
7DC
100
AcDbEntity
  8
0
370
     0
100
AcDbLine
 10
17.45674666694112
 20
2.350069633326415
 30
0.0
 11
17.35421273582223
 21
2.350069633326415
 31
0.0
  0
LINE
  5
89A
330
7DC
100
AcDbEntity
  8
0
370
     0
100
AcDbLine
 10
17.35421273582223
 20
2.350069633326415
 30
0.0
 11
17.46475713030979
 21
2.008823893821337
 31
0.0
  0
LINE
  5
89B
330
7DC
100
AcDbEntity
  8
0
370
     0
100
AcDbLine
 10
17.46475713030979
 20
2.008823893821337
 30
0.0
 11
17.46475713030979
 21
2.008823893821337
 31
0.0
  0
LINE
  5
89C
330
7DC
100
AcDbEntity
  8
0
370
     0
100
AcDbLine
 10
17.46475713030979
 20
2.008823893821337
 30
0.0
 11
17.46475713030979
 21
2.008823893821337
 31
0.0
  0
LINE
  5
89D
330
7DC
100
AcDbEntity
  8
0
370
     0
100
AcDbLine
 10
20.07296400314672
 20
2.345263355305217
 30
0.0
 11
20.07296400314672
 21
2.345263355305217
 31
0.0
  0
HATCH
  5
89E
330
7DC
100
AcDbEntity
  8
0
100
AcDbHatch
 10
0.0
 20
0.0
 30
0.0
210
0.0
220
0.0
230
1.0
  2
SOLID
 70
     1
 71
     0
 91
        2
 92
       16
 93
        4
 72
     2
 10
20.07296400314672
 20
2.354875911347614
 40
0.0048062780211989
 50
270.0
 51
450.0
 73
     1
 72
     1
 10
20.07296400314672
 20
2.359682189368814
 11
20.06014726175686
 21
2.359682189368812
 72
     1
 10
20.06014726175686
 20
2.359682189368812
 11
20.06014726175686
 21
2.350069633326415
 72
     1
 10
20.06014726175686
 20
2.350069633326415
 11
20.07296400314672
 21
2.350069633326415
 97
        0
 92
        1
 93
        9
 72
     2
 10
20.07296400314672
 20
2.354875911347614
 40
0.0096125560423968
 50
270.0
 51
450.0
 73
     1
 72
     1
 10
20.07296400314672
 20
2.364488467390011
 11
20.05373889106193
 21
2.364488467390011
 72
     1
 10
20.05373889106193
 20
2.364488467390011
 11
20.05373889106193
 21
2.330844521241623
 72
     1
 10
20.05373889106193
 20
2.330844521241623
 11
20.06014726175686
 21
2.330844521241623
 72
     1
 10
20.06014726175686
 20
2.330844521241623
 11
20.06014726175686
 21
2.345263355305217
 72
     1
 10
20.06014726175686
 20
2.345263355305217
 11
20.06655563245179
 21
2.345263355305217
 72
     1
 10
20.06655563245179
 20
2.345263355305217
 11
20.07296400314672
 21
2.330844521241623
 72
     1
 10
20.07296400314672
 20
2.330844521241623
 11
20.08097446651538
 21
2.330844521241623
 72
     1
 10
20.08097446651538
 20
2.330844521241623
 11
20.07296400314672
 21
2.345263355305217
 97
        0
 75
     0
 76
     1
 98
        1
 10
0.0
 20
-0.0000000000000036
450
        0
451
        0
460
0.0
461
0.0
452
        1
462
1.0
453
        2
463
0.0
 63
     5
421
      255
463
1.0
 63
     7
421
 16777215
470
LINEAR
1001
ACAD
1010
0.0
1020
0.0
1030
0.0
  0
LINE
  5
89F
330
7DC
100
AcDbEntity
  8
0
370
     0
100
AcDbLine
 10
20.07296400314672
 20
2.364488467390011
 30
0.0
 11
20.05373889106193
 21
2.364488467390011
 31
0.0
  0
LINE
  5
8A0
330
7DC
100
AcDbEntity
  8
0
370
     0
100
AcDbLine
 10
20.05373889106193
 20
2.364488467390011
 30
0.0
 11
20.05373889106193
 21
2.330844521241623
 31
0.0
  0
LINE
  5
8A1
330
7DC
100
AcDbEntity
  8
0
370
     0
100
AcDbLine
 10
20.05373889106193
 20
2.330844521241623
 30
0.0
 11
20.06014726175686
 21
2.330844521241623
 31
0.0
  0
LINE
  5
8A2
330
7DC
100
AcDbEntity
  8
0
370
     0
100
AcDbLine
 10
20.06014726175686
 20
2.330844521241623
 30
0.0
 11
20.06014726175686
 21
2.345263355305217
 31
0.0
  0
LINE
  5
8A3
330
7DC
100
AcDbEntity
  8
0
370
     0
100
AcDbLine
 10
20.06014726175686
 20
2.345263355305217
 30
0.0
 11
20.06655563245179
 21
2.345263355305217
 31
0.0
  0
LINE
  5
8A4
330
7DC
100
AcDbEntity
  8
0
370
     0
100
AcDbLine
 10
20.06655563245179
 20
2.345263355305217
 30
0.0
 11
20.07296400314672
 21
2.330844521241623
 31
0.0
  0
LINE
  5
8A5
330
7DC
100
AcDbEntity
  8
0
370
     0
100
AcDbLine
 10
20.07296400314672
 20
2.330844521241623
 30
0.0
 11
20.08097446651538
 21
2.330844521241623
 31
0.0
  0
LINE
  5
8A6
330
7DC
100
AcDbEntity
  8
0
370
     0
100
AcDbLine
 10
20.08097446651538
 20
2.330844521241623
 30
0.0
 11
20.07296400314672
 21
2.345263355305217
 31
0.0
  0
LINE
  5
8A7
330
7DC
100
AcDbEntity
  8
0
370
     0
100
AcDbLine
 10
20.07296400314672
 20
2.345263355305217
 30
0.0
 11
20.07296400314672
 21
2.345263355305217
 31
0.0
  0
LINE
  5
8A8
330
7DC
100
AcDbEntity
  8
0
370
     0
100
AcDbLine
 10
20.07296400314672
 20
2.345263355305217
 30
0.0
 11
20.07296400314672
 21
2.345263355305217
 31
0.0
  0
LINE
  5
8A9
330
7DC
100
AcDbEntity
  8
0
370
     0
100
AcDbLine
 10
20.06014726175686
 20
2.350069633326415
 30
0.0
 11
20.06014726175686
 21
2.359682189368812
 31
0.0
  0
LINE
  5
8AA
330
7DC
100
AcDbEntity
  8
0
370
     0
100
AcDbLine
 10
20.06815772512552
 20
2.359682189368813
 30
0.0
 11
20.06815772512552
 21
2.359682189368813
 31
0.0
  0
LINE
  5
8AB
330
7DC
100
AcDbEntity
  8
0
370
     0
100
AcDbLine
 10
20.06014726175686
 20
2.359682189368812
 30
0.0
 11
20.07296400314672
 21
2.359682189368814
 31
0.0
  0
LINE
  5
8AC
330
7DC
100
AcDbEntity
  8
0
370
     0
100
AcDbLine
 10
20.07296400314672
 20
2.350069633326415
 30
0.0
 11
20.06014726175686
 21
2.350069633326415
 31
0.0
  0
LINE
  5
8AD
330
7DC
100
AcDbEntity
  8
0
370
     0
100
AcDbLine
 10
20.06014726175686
 20
2.350069633326415
 30
0.0
 11
20.06014726175686
 21
2.350069633326415
 31
0.0
  0
LINE
  5
8AE
330
7DC
100
AcDbEntity
  8
0
370
     0
100
AcDbLine
 10
20.06014726175686
 20
2.350069633326415
 30
0.0
 11
20.06014726175686
 21
2.350069633326415
 31
0.0
  0
CIRCLE
  5
8AF
330
7DC
100
AcDbEntity
  8
0
100
AcDbCircle
 10
20.06815772512552
 20
2.347666494315816
 30
0.0
 40
0.0296387144640559
  0
ARC
  5
8B0
330
7DC
100
AcDbEntity
  8
0
100
AcDbCircle
 10
20.07296400314672
 20
2.354875911347614
 30
0.0
 40
0.0096125560423968
100
AcDbArc
 50
270.0
 51
90.0
  0
ARC
  5
8B1
330
7DC
100
AcDbEntity
  8
0
100
AcDbCircle
 10
20.07296400314672
 20
2.354875911347614
 30
0.0
 40
0.0048062780211989
100
AcDbArc
 50
270.0
 51
90.0
  0
TEXT
  5
8B2
330
7DC
100
AcDbEntity
  8
0
100
AcDbText
 10
20.614972460361
 20
2.237259665278304
 30
0.0
 40
0.09375
  1
22069 VAN BUREN STREET
  7
Aial Narrow Bold
100
AcDbText
  0
TEXT
  5
8B3
330
7DC
100
AcDbEntity
  8
0
100
AcDbText
 10
20.614972460361
 20
2.105448139192527
 30
0.0
 40
0.09375
  1
GRAND TERRACE, CA 92313-5607
  7
Aial Narrow Bold
100
AcDbText
  0
TEXT
  5
8B4
330
7DC
100
AcDbEntity
  8
0
100
AcDbText
 10
20.614972460361
 20
1.973636643715486
 30
0.0
 40
0.09375
  1
(909) 422-1700
  7
Aial Narrow Bold
100
AcDbText
  0
TEXT
  5
8B5
330
7DC
100
AcDbEntity
  8
0
100
AcDbText
 10
20.614972460361
 20
1.850056878213758
 30
0.0
 40
0.09375
  1
WWW.WILDENPUMP.COM
  7
Aial Narrow Bold
100
AcDbText
  0
LINE
  5
8B6
330
7DC
100
AcDbEntity
  8
0
370
     0
100
AcDbLine
 10
19.38190710912763
 20
1.864709134842601
 30
0.0
 11
19.374965097451
 21
1.864709134842601
 31
0.0
  0
LINE
  5
8B7
330
7DC
100
AcDbEntity
  8
0
370
     0
100
AcDbLine
 10
19.374965097451
 20
1.864709134842601
 30
0.0
 11
19.374965097451
 21
1.904817195365627
 31
0.0
  0
LINE
  5
8B8
330
7DC
100
AcDbEntity
  8
0
370
     0
100
AcDbLine
 10
19.374965097451
 20
1.904817195365627
 30
0.0
 11
19.38190710912763
 21
1.904817195365627
 31
0.0
  0
LINE
  5
8B9
330
7DC
100
AcDbEntity
  8
0
370
     0
100
AcDbLine
 10
19.35363592611232
 20
1.853478877896154
 30
0.0
 11
19.35363592611232
 21
1.919256097153914
 31
0.0
  0
LINE
  5
8BA
330
7DC
100
AcDbEntity
  8
0
370
     0
100
AcDbLine
 10
19.38591791517992
 20
1.868719940894904
 30
0.0
 11
19.38591791517992
 21
1.900806389313324
 31
0.0
  0
LINE
  5
8BB
330
7DC
100
AcDbEntity
  8
0
370
     0
100
AcDbLine
 10
19.40705154586942
 20
1.871601468940064
 30
0.0
 11
19.40705154586942
 21
1.901133506110004
 31
0.0
  0
LINE
  5
8BC
330
7DC
100
AcDbEntity
  8
0
370
     0
100
AcDbLine
 10
19.38892895482552
 20
1.919256097153914
 30
0.0
 11
19.35363592611232
 21
1.919256097153914
 31
0.0
  0
ARC
  5
8BD
330
7DC
100
AcDbEntity
  8
0
370
     0
100
AcDbCircle
 10
19.38892895482552
 20
1.901133506110004
 30
0.0
 40
0.0181225910439099
100
AcDbArc
 50
0.0000000000008142
 51
90.0
  0
LINE
  5
8BE
330
7DC
100
AcDbEntity
  8
0
370
     0
100
AcDbLine
 10
19.48369714483065
 20
1.853478877896154
 30
0.0
 11
19.51578359324908
 21
1.853478877896154
 31
0.0
  0
LINE
  5
8BF
330
7DC
100
AcDbEntity
  8
0
370
     0
100
AcDbLine
 10
19.51578359324908
 20
1.853478877896154
 30
0.0
 11
19.53022249503737
 21
1.919256097153915
 31
0.0
  0
LINE
  5
8C0
330
7DC
100
AcDbEntity
  8
0
370
     0
100
AcDbLine
 10
19.53022249503737
 20
1.919256097153915
 30
0.0
 11
19.50615765872356
 21
1.919256097153915
 31
0.0
  0
LINE
  5
8C1
330
7DC
100
AcDbEntity
  8
0
370
     0
100
AcDbLine
 10
19.50615765872356
 20
1.919256097153915
 30
0.0
 11
19.49974036903987
 21
1.867917779684444
 31
0.0
  0
LINE
  5
8C2
330
7DC
100
AcDbEntity
  8
0
370
     0
100
AcDbLine
 10
19.49974036903987
 20
1.867917779684444
 30
0.0
 11
19.49974036903987
 21
1.867917779684444
 31
0.0
  0
LINE
  5
8C3
330
7DC
100
AcDbEntity
  8
0
370
     0
100
AcDbLine
 10
19.49974036903987
 20
1.867917779684444
 30
0.0
 11
19.49332307935619
 21
1.919256097153915
 31
0.0
  0
LINE
  5
8C4
330
7DC
100
AcDbEntity
  8
0
370
     0
100
AcDbLine
 10
19.49332307935619
 20
1.919256097153915
 30
0.0
 11
19.46925824304237
 21
1.919256097153915
 31
0.0
  0
LINE
  5
8C5
330
7DC
100
AcDbEntity
  8
0
370
     0
100
AcDbLine
 10
19.46925824304237
 20
1.919256097153915
 30
0.0
 11
19.48369714483065
 21
1.853478877896154
 31
0.0
  0
LINE
  5
8C6
330
7DC
100
AcDbEntity
  8
0
370
     0
100
AcDbLine
 10
19.48369714483065
 20
1.853478877896154
 30
0.0
 11
19.48369714483065
 21
1.853478877896154
 31
0.0
  0
LINE
  5
8C7
330
7DC
100
AcDbEntity
  8
0
370
     0
100
AcDbLine
 10
19.48369714483065
 20
1.853478877896154
 30
0.0
 11
19.48369714483065
 21
1.853478877896154
 31
0.0
  0
LINE
  5
8C8
330
7DC
100
AcDbEntity
  8
0
370
     0
100
AcDbLine
 10
19.53182681745828
 20
1.853478877896154
 30
0.0
 11
19.57674784524408
 21
1.853478877896154
 31
0.0
  0
LINE
  5
8C9
330
7DC
100
AcDbEntity
  8
0
370
     0
100
AcDbLine
 10
19.57674784524408
 20
1.853478877896154
 30
0.0
 11
19.57674784524408
 21
1.867917779684444
 31
0.0
  0
LINE
  5
8CA
330
7DC
100
AcDbEntity
  8
0
370
     0
100
AcDbLine
 10
19.57674784524408
 20
1.867917779684444
 30
0.0
 11
19.5558916537721
 21
1.867917779684444
 31
0.0
  0
LINE
  5
8CB
330
7DC
100
AcDbEntity
  8
0
370
     0
100
AcDbLine
 10
19.5558916537721
 20
1.867917779684444
 30
0.0
 11
19.5558916537721
 21
1.879148036630891
 31
0.0
  0
LINE
  5
8CC
330
7DC
100
AcDbEntity
  8
0
370
     0
100
AcDbLine
 10
19.5558916537721
 20
1.879148036630891
 30
0.0
 11
19.57674784524408
 21
1.879148036630891
 31
0.0
  0
LINE
  5
8CD
330
7DC
100
AcDbEntity
  8
0
370
     0
100
AcDbLine
 10
19.57674784524408
 20
1.879148036630891
 30
0.0
 11
19.57674784524408
 21
1.891982615998259
 31
0.0
  0
LINE
  5
8CE
330
7DC
100
AcDbEntity
  8
0
370
     0
100
AcDbLine
 10
19.57674784524408
 20
1.891982615998259
 30
0.0
 11
19.5558916537721
 21
1.891982615998259
 31
0.0
  0
LINE
  5
8CF
330
7DC
100
AcDbEntity
  8
0
370
     0
100
AcDbLine
 10
19.5558916537721
 20
1.891982615998259
 30
0.0
 11
19.5558916537721
 21
1.903212872944705
 31
0.0
  0
LINE
  5
8D0
330
7DC
100
AcDbEntity
  8
0
370
     0
100
AcDbLine
 10
19.5558916537721
 20
1.903212872944705
 30
0.0
 11
19.57674784524408
 21
1.903212872944705
 31
0.0
  0
LINE
  5
8D1
330
7DC
100
AcDbEntity
  8
0
370
     0
100
AcDbLine
 10
19.57674784524408
 20
1.903212872944705
 30
0.0
 11
19.57674784524408
 21
1.919256097153915
 31
0.0
  0
LINE
  5
8D2
330
7DC
100
AcDbEntity
  8
0
370
     0
100
AcDbLine
 10
19.57674784524408
 20
1.919256097153915
 30
0.0
 11
19.53182681745828
 21
1.919256097153915
 31
0.0
  0
LINE
  5
8D3
330
7DC
100
AcDbEntity
  8
0
370
     0
100
AcDbLine
 10
19.53182681745828
 20
1.919256097153915
 30
0.0
 11
19.53182681745828
 21
1.853478877896154
 31
0.0
  0
LINE
  5
8D4
330
7DC
100
AcDbEntity
  8
0
370
     0
100
AcDbLine
 10
19.53182681745828
 20
1.853478877896154
 30
0.0
 11
19.53182681745828
 21
1.853478877896154
 31
0.0
  0
LINE
  5
8D5
330
7DC
100
AcDbEntity
  8
0
370
     0
100
AcDbLine
 10
19.53182681745828
 20
1.853478877896154
 30
0.0
 11
19.53182681745828
 21
1.853478877896154
 31
0.0
  0
LINE
  5
8D6
330
7DC
100
AcDbEntity
  8
0
370
     0
100
AcDbLine
 10
19.60402132639973
 20
1.906421517786547
 30
0.0
 11
19.61122489703418
 21
1.906421517786547
 31
0.0
  0
LINE
  5
8D7
330
7DC
100
AcDbEntity
  8
0
370
     0
100
AcDbLine
 10
19.61122489703418
 20
1.890378293577337
 30
0.0
 11
19.60402132639973
 21
1.890378293577337
 31
0.0
  0
LINE
  5
8D8
330
7DC
100
AcDbEntity
  8
0
370
     0
100
AcDbLine
 10
19.60402132639973
 20
1.890378293577337
 30
0.0
 11
19.60402132639973
 21
1.906421517786547
 31
0.0
  0
LINE
  5
8D9
330
7DC
100
AcDbEntity
  8
0
370
     0
100
AcDbLine
 10
19.60402132639973
 20
1.906421517786547
 30
0.0
 11
19.60402132639973
 21
1.906421517786547
 31
0.0
  0
LINE
  5
8DA
330
7DC
100
AcDbEntity
  8
0
370
     0
100
AcDbLine
 10
19.60402132639973
 20
1.906421517786547
 30
0.0
 11
19.60402132639973
 21
1.906421517786547
 31
0.0
  0
LINE
  5
8DB
330
7DC
100
AcDbEntity
  8
0
370
     0
100
AcDbLine
 10
19.58156081250684
 20
1.853478877896154
 30
0.0
 11
19.60402132639973
 21
1.853478877896154
 31
0.0
  0
LINE
  5
8DC
330
7DC
100
AcDbEntity
  8
0
370
     0
100
AcDbLine
 10
19.60402132639973
 20
1.853478877896154
 30
0.0
 11
19.60402132639973
 21
1.877543714209969
 31
0.0
  0
LINE
  5
8DD
330
7DC
100
AcDbEntity
  8
0
370
     0
100
AcDbLine
 10
19.60402132639973
 20
1.877543714209969
 30
0.0
 11
19.61364726092526
 21
1.877543714209969
 31
0.0
  0
LINE
  5
8DE
330
7DC
100
AcDbEntity
  8
0
370
     0
100
AcDbLine
 10
19.61364726092526
 20
1.877543714209969
 30
0.0
 11
19.61364726092526
 21
1.877543714209969
 31
0.0
  0
LINE
  5
8DF
330
7DC
100
AcDbEntity
  8
0
370
     0
100
AcDbLine
 10
19.61364726092526
 20
1.877543714209969
 30
0.0
 11
19.61364726092526
 21
1.853478877896154
 31
0.0
  0
LINE
  5
8E0
330
7DC
100
AcDbEntity
  8
0
370
     0
100
AcDbLine
 10
19.61364726092526
 20
1.853478877896154
 30
0.0
 11
19.61364726092526
 21
1.853478877896154
 31
0.0
  0
LINE
  5
8E1
330
7DC
100
AcDbEntity
  8
0
370
     0
100
AcDbLine
 10
19.61364726092526
 20
1.853478877896154
 30
0.0
 11
19.63610777481816
 21
1.853478877896154
 31
0.0
  0
LINE
  5
8E2
330
7DC
100
AcDbEntity
  8
0
370
     0
100
AcDbLine
 10
19.63610777481816
 20
1.853478877896154
 30
0.0
 11
19.63610777481816
 21
1.875262160192575
 31
0.0
  0
ARC
  5
8E3
330
7DC
100
AcDbEntity
  8
0
370
     0
100
AcDbCircle
 10
19.62740893111708
 20
1.875262160192575
 30
0.0
 40
0.0086988437010767
100
AcDbArc
 50
0.0
 51
73.96582458072728
  0
LINE
  5
8E4
330
7DC
100
AcDbEntity
  8
0
370
     0
100
AcDbLine
 10
19.62412015395614
 20
1.919256097153916
 30
0.0
 11
19.58156081250684
 21
1.919256097153915
 31
0.0
  0
ARC
  5
8E5
330
7DC
100
AcDbEntity
  8
0
370
     0
100
AcDbCircle
 10
19.62412015395614
 20
1.905664153870984
 30
0.0
 40
0.0135919432829324
100
AcDbArc
 50
0.0
 51
90.0
  0
LINE
  5
8E6
330
7DC
100
AcDbEntity
  8
0
370
     0
100
AcDbLine
 10
19.58156081250684
 20
1.919256097153915
 30
0.0
 11
19.58156081250684
 21
1.853478877896154
 31
0.0
  0
LINE
  5
8E7
330
7DC
100
AcDbEntity
  8
0
370
     0
100
AcDbLine
 10
19.58156081250684
 20
1.853478877896154
 30
0.0
 11
19.58156081250684
 21
1.853478877896154
 31
0.0
  0
LINE
  5
8E8
330
7DC
100
AcDbEntity
  8
0
370
     0
100
AcDbLine
 10
19.58156081250684
 20
1.853478877896154
 30
0.0
 11
19.58156081250684
 21
1.853478877896154
 31
0.0
  0
LINE
  5
8E9
330
7DC
100
AcDbEntity
  8
0
370
     0
100
AcDbLine
 10
19.75292916516833
 20
1.874335069368128
 30
0.0
 11
19.7387844097571
 21
1.874335069368128
 31
0.0
  0
LINE
  5
8EA
330
7DC
100
AcDbEntity
  8
0
370
     0
100
AcDbLine
 10
19.7387844097571
 20
1.874335069368128
 30
0.0
 11
19.7387844097571
 21
1.869522102105366
 31
0.0
  0
LINE
  5
8EB
330
7DC
100
AcDbEntity
  8
0
370
     0
100
AcDbLine
 10
19.7387844097571
 20
1.888773971156417
 30
0.0
 11
19.7387844097571
 21
1.885565326314576
 31
0.0
  0
LINE
  5
8EC
330
7DC
100
AcDbEntity
  8
0
370
     0
100
AcDbLine
 10
19.7387844097571
 20
1.885565326314576
 30
0.0
 11
19.75255431750939
 21
1.885565326314576
 31
0.0
  0
LINE
  5
8ED
330
7DC
100
AcDbEntity
  8
0
370
     0
100
AcDbLine
 10
19.7933313720684
 20
1.87754371420997
 30
0.0
 11
19.7933313720684
 21
1.880752359051814
 31
0.0
  0
LINE
  5
8EE
330
7DC
100
AcDbEntity
  8
0
370
     0
100
AcDbLine
 10
19.77247518059644
 20
1.888773971156417
 30
0.0
 11
19.77247518059644
 21
1.888773971156417
 31
0.0
  0
LINE
  5
8EF
330
7DC
100
AcDbEntity
  8
0
370
     0
100
AcDbLine
 10
19.77889247028012
 20
1.888773971156418
 30
0.0
 11
19.77889247028012
 21
1.869522102105367
 31
0.0
  0
LINE
  5
8F0
330
7DC
100
AcDbEntity
  8
0
370
     0
100
AcDbLine
 10
19.77889247028012
 20
1.869522102105366
 30
0.0
 11
19.77889247028012
 21
1.869522102105366
 31
0.0
  0
LINE
  5
8F1
330
7DC
100
AcDbEntity
  8
0
370
     0
100
AcDbLine
 10
19.77568382543827
 20
1.866313457263524
 30
0.0
 11
19.77568382543827
 21
1.866313457263524
 31
0.0
  0
LINE
  5
8F2
330
7DC
100
AcDbEntity
  8
0
370
     0
100
AcDbLine
 10
19.77247518059644
 20
1.869522102105367
 30
0.0
 11
19.77247518059644
 21
1.888773971156418
 31
0.0
  0
LINE
  5
8F3
330
7DC
100
AcDbEntity
  8
0
370
     0
100
AcDbLine
 10
19.77247518059644
 20
1.888773971156417
 30
0.0
 11
19.77247518059644
 21
1.888773971156417
 31
0.0
  0
LINE
  5
8F4
330
7DC
100
AcDbEntity
  8
0
370
     0
100
AcDbLine
 10
19.77247518059644
 20
1.888773971156417
 30
0.0
 11
19.77247518059644
 21
1.888773971156417
 31
0.0
  0
LINE
  5
8F5
330
7DC
100
AcDbEntity
  8
0
370
     0
100
AcDbLine
 10
19.79654001691025
 20
1.859896167579839
 30
0.0
 11
19.80937459627762
 21
1.859896167579839
 31
0.0
  0
LINE
  5
8F6
330
7DC
100
AcDbEntity
  8
0
370
     0
100
AcDbLine
 10
19.80937459627762
 20
1.859896167579839
 30
0.0
 11
19.80937459627762
 21
1.888773971156416
 31
0.0
  0
LINE
  5
8F7
330
7DC
100
AcDbEntity
  8
0
370
     0
100
AcDbLine
 10
19.80937459627762
 20
1.888773971156416
 30
0.0
 11
19.80937459627762
 21
1.888773971156416
 31
0.0
  0
LINE
  5
8F8
330
7DC
100
AcDbEntity
  8
0
370
     0
100
AcDbLine
 10
19.80937459627762
 20
1.888773971156416
 30
0.0
 11
19.8157918859613
 21
1.859896167579839
 31
0.0
  0
LINE
  5
8F9
330
7DC
100
AcDbEntity
  8
0
370
     0
100
AcDbLine
 10
19.8157918859613
 20
1.859896167579839
 30
0.0
 11
19.82862646532868
 21
1.859896167579839
 31
0.0
  0
LINE
  5
8FA
330
7DC
100
AcDbEntity
  8
0
370
     0
100
AcDbLine
 10
19.82862646532868
 20
1.859896167579839
 30
0.0
 11
19.83343943259144
 21
1.888773971156416
 31
0.0
  0
LINE
  5
8FB
330
7DC
100
AcDbEntity
  8
0
370
     0
100
AcDbLine
 10
19.83343943259144
 20
1.888773971156416
 30
0.0
 11
19.83343943259144
 21
1.888773971156416
 31
0.0
  0
LINE
  5
8FC
330
7DC
100
AcDbEntity
  8
0
370
     0
100
AcDbLine
 10
19.83343943259144
 20
1.888773971156416
 30
0.0
 11
19.83343943259144
 21
1.859896167579839
 31
0.0
  0
LINE
  5
8FD
330
7DC
100
AcDbEntity
  8
0
370
     0
100
AcDbLine
 10
19.83343943259144
 20
1.859896167579839
 30
0.0
 11
19.84627401195881
 21
1.859896167579839
 31
0.0
  0
LINE
  5
8FE
330
7DC
100
AcDbEntity
  8
0
370
     0
100
AcDbLine
 10
19.84627401195881
 20
1.859896167579839
 30
0.0
 11
19.84627401195881
 21
1.898399905681943
 31
0.0
  0
LINE
  5
8FF
330
7DC
100
AcDbEntity
  8
0
370
     0
100
AcDbLine
 10
19.84627401195881
 20
1.898399905681943
 30
0.0
 11
19.82541782048683
 21
1.898399905681943
 31
0.0
  0
LINE
  5
900
330
7DC
100
AcDbEntity
  8
0
370
     0
100
AcDbLine
 10
19.82541782048683
 20
1.898399905681943
 30
0.0
 11
19.82220917564499
 21
1.875939391789049
 31
0.0
  0
LINE
  5
901
330
7DC
100
AcDbEntity
  8
0
370
     0
100
AcDbLine
 10
19.82220917564499
 20
1.875939391789049
 30
0.0
 11
19.82220917564499
 21
1.875939391789049
 31
0.0
  0
LINE
  5
902
330
7DC
100
AcDbEntity
  8
0
370
     0
100
AcDbLine
 10
19.82220917564499
 20
1.875939391789049
 30
0.0
 11
19.81900053080314
 21
1.898399905681943
 31
0.0
  0
LINE
  5
903
330
7DC
100
AcDbEntity
  8
0
370
     0
100
AcDbLine
 10
19.81900053080314
 20
1.898399905681943
 30
0.0
 11
19.79654001691025
 21
1.898399905681943
 31
0.0
  0
LINE
  5
904
330
7DC
100
AcDbEntity
  8
0
370
     0
100
AcDbLine
 10
19.79654001691025
 20
1.898399905681943
 30
0.0
 11
19.79654001691025
 21
1.859896167579839
 31
0.0
  0
LINE
  5
905
330
7DC
100
AcDbEntity
  8
0
370
     0
100
AcDbLine
 10
19.79654001691025
 20
1.859896167579839
 30
0.0
 11
19.79654001691025
 21
1.859896167579839
 31
0.0
  0
LINE
  5
906
330
7DC
100
AcDbEntity
  8
0
370
     0
100
AcDbLine
 10
19.79654001691025
 20
1.859896167579839
 30
0.0
 11
19.79654001691025
 21
1.859896167579839
 31
0.0
  0
LINE
  5
907
330
7DC
100
AcDbEntity
  8
0
370
     0
100
AcDbLine
 10
19.86713020343078
 20
1.871126424526285
 30
0.0
 11
19.87595397674585
 21
1.871126424526285
 31
0.0
  0
LINE
  5
908
330
7DC
100
AcDbEntity
  8
0
370
     0
100
AcDbLine
 10
19.87595397674585
 20
1.898399905681942
 30
0.0
 11
19.87515181553538
 21
1.898399905681943
 31
0.0
  0
LINE
  5
909
330
7DC
100
AcDbEntity
  8
0
370
     0
100
AcDbLine
 10
19.87515181553538
 20
1.898399905681943
 30
0.0
 11
19.85269130164249
 21
1.898399905681943
 31
0.0
  0
LINE
  5
90A
330
7DC
100
AcDbEntity
  8
0
370
     0
100
AcDbLine
 10
19.85269130164249
 20
1.898399905681943
 30
0.0
 11
19.85269130164249
 21
1.859896167579839
 31
0.0
  0
LINE
  5
90B
330
7DC
100
AcDbEntity
  8
0
370
     0
100
AcDbLine
 10
19.85269130164249
 20
1.859896167579839
 30
0.0
 11
19.85269130164249
 21
1.859896167579839
 31
0.0
  0
LINE
  5
90C
330
7DC
100
AcDbEntity
  8
0
370
     0
100
AcDbLine
 10
19.85269130164249
 20
1.859896167579839
 30
0.0
 11
19.85269130164249
 21
1.859896167579839
 31
0.0
  0
LINE
  5
90D
330
7DC
100
AcDbEntity
  8
0
370
     0
100
AcDbLine
 10
19.85269130164249
 20
1.859896167579839
 30
0.0
 11
19.86713020343078
 21
1.859896167579839
 31
0.0
  0
LINE
  5
90E
330
7DC
100
AcDbEntity
  8
0
370
     0
100
AcDbLine
 10
19.86713020343078
 20
1.859896167579839
 30
0.0
 11
19.86713020343078
 21
1.871126424526285
 31
0.0
  0
LINE
  5
90F
330
7DC
100
AcDbEntity
  8
0
370
     0
100
AcDbLine
 10
19.86713020343078
 20
1.890378293577337
 30
0.0
 11
19.87274533190399
 21
1.890378293577337
 31
0.0
  0
LINE
  5
910
330
7DC
100
AcDbEntity
  8
0
370
     0
100
AcDbLine
 10
19.87274533190399
 20
1.879148036630892
 30
0.0
 11
19.86713020343078
 21
1.879148036630891
 31
0.0
  0
LINE
  5
911
330
7DC
100
AcDbEntity
  8
0
370
     0
100
AcDbLine
 10
19.86713020343078
 20
1.879148036630891
 30
0.0
 11
19.86713020343078
 21
1.890378293577337
 31
0.0
  0
LINE
  5
912
330
7DC
100
AcDbEntity
  8
0
370
     0
100
AcDbLine
 10
19.86713020343078
 20
1.890378293577337
 30
0.0
 11
19.86713020343078
 21
1.890378293577337
 31
0.0
  0
LINE
  5
913
330
7DC
100
AcDbEntity
  8
0
370
     0
100
AcDbLine
 10
19.86713020343078
 20
1.890378293577337
 30
0.0
 11
19.86713020343078
 21
1.890378293577337
 31
0.0
  0
LINE
  5
914
330
7DC
100
AcDbEntity
  8
0
370
     0
100
AcDbLine
 10
19.88638207248183
 20
1.859896167579839
 30
0.0
 11
19.90082097427013
 21
1.859896167579839
 31
0.0
  0
LINE
  5
915
330
7DC
100
AcDbEntity
  8
0
370
     0
100
AcDbLine
 10
19.90082097427013
 20
1.859896167579839
 30
0.0
 11
19.90242529669104
 21
1.866313457263523
 31
0.0
  0
LINE
  5
916
330
7DC
100
AcDbEntity
  8
0
370
     0
100
AcDbLine
 10
19.90242529669104
 20
1.866313457263523
 30
0.0
 11
19.91044690879564
 21
1.866313457263523
 31
0.0
  0
LINE
  5
917
330
7DC
100
AcDbEntity
  8
0
370
     0
100
AcDbLine
 10
19.91044690879564
 20
1.866313457263523
 30
0.0
 11
19.91205123121657
 21
1.859896167579839
 31
0.0
  0
LINE
  5
918
330
7DC
100
AcDbEntity
  8
0
370
     0
100
AcDbLine
 10
19.91205123121657
 20
1.859896167579839
 30
0.0
 11
19.92649013300485
 21
1.859896167579839
 31
0.0
  0
LINE
  5
919
330
7DC
100
AcDbEntity
  8
0
370
     0
100
AcDbLine
 10
19.92649013300485
 20
1.859896167579839
 30
0.0
 11
19.91686419847933
 21
1.898399905681943
 31
0.0
  0
LINE
  5
91A
330
7DC
100
AcDbEntity
  8
0
370
     0
100
AcDbLine
 10
19.91686419847933
 20
1.898399905681943
 30
0.0
 11
19.89600800700735
 21
1.898399905681943
 31
0.0
  0
LINE
  5
91B
330
7DC
100
AcDbEntity
  8
0
370
     0
100
AcDbLine
 10
19.89600800700735
 20
1.898399905681943
 30
0.0
 11
19.88638207248183
 21
1.859896167579839
 31
0.0
  0
LINE
  5
91C
330
7DC
100
AcDbEntity
  8
0
370
     0
100
AcDbLine
 10
19.88638207248183
 20
1.859896167579839
 30
0.0
 11
19.88638207248183
 21
1.859896167579839
 31
0.0
  0
LINE
  5
91D
330
7DC
100
AcDbEntity
  8
0
370
     0
100
AcDbLine
 10
19.88638207248183
 20
1.859896167579839
 30
0.0
 11
19.88638207248183
 21
1.859896167579839
 31
0.0
  0
LINE
  5
91E
330
7DC
100
AcDbEntity
  8
0
370
     0
100
AcDbLine
 10
19.90723826395381
 20
1.891982615998259
 30
0.0
 11
19.90723826395381
 21
1.891982615998259
 31
0.0
  0
LINE
  5
91F
330
7DC
100
AcDbEntity
  8
0
370
     0
100
AcDbLine
 10
19.90723826395381
 20
1.891982615998259
 30
0.0
 11
19.91044690879564
 21
1.872730746947207
 31
0.0
  0
LINE
  5
920
330
7DC
100
AcDbEntity
  8
0
370
     0
100
AcDbLine
 10
19.91044690879564
 20
1.872730746947207
 30
0.0
 11
19.90402961911196
 21
1.872730746947207
 31
0.0
  0
LINE
  5
921
330
7DC
100
AcDbEntity
  8
0
370
     0
100
AcDbLine
 10
19.90402961911196
 20
1.872730746947207
 30
0.0
 11
19.90723826395381
 21
1.891982615998259
 31
0.0
  0
LINE
  5
922
330
7DC
100
AcDbEntity
  8
0
370
     0
100
AcDbLine
 10
19.90723826395381
 20
1.891982615998259
 30
0.0
 11
19.90723826395381
 21
1.891982615998259
 31
0.0
  0
LINE
  5
923
330
7DC
100
AcDbEntity
  8
0
370
     0
100
AcDbLine
 10
19.90723826395381
 20
1.891982615998259
 30
0.0
 11
19.90723826395381
 21
1.891982615998259
 31
0.0
  0
LINE
  5
924
330
7DC
100
AcDbEntity
  8
0
370
     0
100
AcDbLine
 10
19.9296987778467
 20
1.859896167579839
 30
0.0
 11
19.94253335721407
 21
1.859896167579839
 31
0.0
  0
LINE
  5
925
330
7DC
100
AcDbEntity
  8
0
370
     0
100
AcDbLine
 10
19.94253335721407
 20
1.859896167579839
 30
0.0
 11
19.94253335721407
 21
1.882356681472731
 31
0.0
  0
LINE
  5
926
330
7DC
100
AcDbEntity
  8
0
370
     0
100
AcDbLine
 10
19.94253335721407
 20
1.882356681472731
 30
0.0
 11
19.94253335721407
 21
1.882356681472731
 31
0.0
  0
LINE
  5
927
330
7DC
100
AcDbEntity
  8
0
370
     0
100
AcDbLine
 10
19.94253335721407
 20
1.882356681472731
 30
0.0
 11
19.95055496931867
 21
1.859896167579839
 31
0.0
  0
LINE
  5
928
330
7DC
100
AcDbEntity
  8
0
370
     0
100
AcDbLine
 10
19.95055496931867
 20
1.859896167579839
 30
0.0
 11
19.96980683836972
 21
1.859896167579839
 31
0.0
  0
LINE
  5
929
330
7DC
100
AcDbEntity
  8
0
370
     0
100
AcDbLine
 10
19.96980683836972
 20
1.859896167579839
 30
0.0
 11
19.96980683836972
 21
1.898399905681943
 31
0.0
  0
LINE
  5
92A
330
7DC
100
AcDbEntity
  8
0
370
     0
100
AcDbLine
 10
19.96980683836972
 20
1.898399905681943
 30
0.0
 11
19.95697225900235
 21
1.898399905681943
 31
0.0
  0
LINE
  5
92B
330
7DC
100
AcDbEntity
  8
0
370
     0
100
AcDbLine
 10
19.95697225900235
 20
1.898399905681943
 30
0.0
 11
19.95697225900235
 21
1.874335069368127
 31
0.0
  0
LINE
  5
92C
330
7DC
100
AcDbEntity
  8
0
370
     0
100
AcDbLine
 10
19.95697225900235
 20
1.874335069368127
 30
0.0
 11
19.95697225900235
 21
1.874335069368127
 31
0.0
  0
LINE
  5
92D
330
7DC
100
AcDbEntity
  8
0
370
     0
100
AcDbLine
 10
19.95697225900235
 20
1.874335069368127
 30
0.0
 11
19.94895064689774
 21
1.898399905681943
 31
0.0
  0
LINE
  5
92E
330
7DC
100
AcDbEntity
  8
0
370
     0
100
AcDbLine
 10
19.94895064689774
 20
1.898399905681943
 30
0.0
 11
19.9296987778467
 21
1.898399905681943
 31
0.0
  0
LINE
  5
92F
330
7DC
100
AcDbEntity
  8
0
370
     0
100
AcDbLine
 10
19.9296987778467
 20
1.898399905681943
 30
0.0
 11
19.9296987778467
 21
1.859896167579839
 31
0.0
  0
LINE
  5
930
330
7DC
100
AcDbEntity
  8
0
370
     0
100
AcDbLine
 10
19.9296987778467
 20
1.859896167579839
 30
0.0
 11
19.9296987778467
 21
1.859896167579839
 31
0.0
  0
LINE
  5
931
330
7DC
100
AcDbEntity
  8
0
370
     0
100
AcDbLine
 10
19.9296987778467
 20
1.859896167579839
 30
0.0
 11
19.9296987778467
 21
1.859896167579839
 31
0.0
  0
LINE
  5
932
330
7DC
100
AcDbEntity
  8
0
370
     0
100
AcDbLine
 10
19.98424574015802
 20
1.859896167579839
 30
0.0
 11
20.00028896436722
 21
1.859896167579839
 31
0.0
  0
LINE
  5
933
330
7DC
100
AcDbEntity
  8
0
370
     0
100
AcDbLine
 10
20.00028896436722
 20
1.859896167579839
 30
0.0
 11
20.00028896436722
 21
1.872730746947207
 31
0.0
  0
LINE
  5
934
330
7DC
100
AcDbEntity
  8
0
370
     0
100
AcDbLine
 10
20.00028896436722
 20
1.872730746947207
 30
0.0
 11
20.01151922131366
 21
1.898399905681943
 31
0.0
  0
LINE
  5
935
330
7DC
100
AcDbEntity
  8
0
370
     0
100
AcDbLine
 10
20.01151922131366
 20
1.898399905681943
 30
0.0
 11
19.99708031952537
 21
1.898399905681943
 31
0.0
  0
LINE
  5
936
330
7DC
100
AcDbEntity
  8
0
370
     0
100
AcDbLine
 10
19.99708031952537
 20
1.898399905681943
 30
0.0
 11
19.99226735226261
 21
1.885565326314575
 31
0.0
  0
LINE
  5
937
330
7DC
100
AcDbEntity
  8
0
370
     0
100
AcDbLine
 10
19.99226735226261
 20
1.885565326314575
 30
0.0
 11
19.99226735226261
 21
1.885565326314575
 31
0.0
  0
LINE
  5
938
330
7DC
100
AcDbEntity
  8
0
370
     0
100
AcDbLine
 10
19.99226735226261
 20
1.885565326314575
 30
0.0
 11
19.98745438499985
 21
1.898399905681943
 31
0.0
  0
LINE
  5
939
330
7DC
100
AcDbEntity
  8
0
370
     0
100
AcDbLine
 10
19.98745438499985
 20
1.898399905681943
 30
0.0
 11
19.97301548321155
 21
1.898399905681943
 31
0.0
  0
LINE
  5
93A
330
7DC
100
AcDbEntity
  8
0
370
     0
100
AcDbLine
 10
19.97301548321155
 20
1.898399905681943
 30
0.0
 11
19.98424574015802
 21
1.872730746947207
 31
0.0
  0
LINE
  5
93B
330
7DC
100
AcDbEntity
  8
0
370
     0
100
AcDbLine
 10
19.98424574015802
 20
1.872730746947207
 30
0.0
 11
19.98424574015802
 21
1.859896167579839
 31
0.0
  0
LINE
  5
93C
330
7DC
100
AcDbEntity
  8
0
370
     0
100
AcDbLine
 10
19.98424574015802
 20
1.859896167579839
 30
0.0
 11
19.98424574015802
 21
1.859896167579839
 31
0.0
  0
LINE
  5
93D
330
7DC
100
AcDbEntity
  8
0
370
     0
100
AcDbLine
 10
19.98424574015802
 20
1.859896167579839
 30
0.0
 11
19.98424574015802
 21
1.859896167579839
 31
0.0
  0
LINE
  5
93E
330
7DC
100
AcDbEntity
  8
0
370
     0
100
AcDbLine
 10
19.19010614180213
 20
1.859896167579839
 30
0.0
 11
19.20935801085317
 21
1.859896167579839
 31
0.0
  0
LINE
  5
93F
330
7DC
100
AcDbEntity
  8
0
370
     0
100
AcDbLine
 10
19.20935801085317
 20
1.859896167579839
 30
0.0
 11
19.21096233327409
 21
1.867917779684444
 31
0.0
  0
LINE
  5
940
330
7DC
100
AcDbEntity
  8
0
370
     0
100
AcDbLine
 10
19.21096233327409
 20
1.867917779684444
 30
0.0
 11
19.22219259022053
 21
1.867917779684444
 31
0.0
  0
LINE
  5
941
330
7DC
100
AcDbEntity
  8
0
370
     0
100
AcDbLine
 10
19.22219259022053
 20
1.867917779684444
 30
0.0
 11
19.22379691264146
 21
1.859896167579839
 31
0.0
  0
LINE
  5
942
330
7DC
100
AcDbEntity
  8
0
370
     0
100
AcDbLine
 10
19.22379691264146
 20
1.859896167579839
 30
0.0
 11
19.24304878169252
 21
1.859896167579839
 31
0.0
  0
LINE
  5
943
330
7DC
100
AcDbEntity
  8
0
370
     0
100
AcDbLine
 10
19.24304878169252
 20
1.859896167579839
 30
0.0
 11
19.23021420232515
 21
1.90963016262839
 31
0.0
  0
LINE
  5
944
330
7DC
100
AcDbEntity
  8
0
370
     0
100
AcDbLine
 10
19.23021420232515
 20
1.90963016262839
 30
0.0
 11
19.20294072116948
 21
1.90963016262839
 31
0.0
  0
LINE
  5
945
330
7DC
100
AcDbEntity
  8
0
370
     0
100
AcDbLine
 10
19.20294072116948
 20
1.90963016262839
 30
0.0
 11
19.19010614180213
 21
1.859896167579839
 31
0.0
  0
LINE
  5
946
330
7DC
100
AcDbEntity
  8
0
370
     0
100
AcDbLine
 10
19.19010614180213
 20
1.859896167579839
 30
0.0
 11
19.19010614180213
 21
1.859896167579839
 31
0.0
  0
LINE
  5
947
330
7DC
100
AcDbEntity
  8
0
370
     0
100
AcDbLine
 10
19.19010614180213
 20
1.859896167579839
 30
0.0
 11
19.19010614180213
 21
1.859896167579839
 31
0.0
  0
LINE
  5
948
330
7DC
100
AcDbEntity
  8
0
370
     0
100
AcDbLine
 10
19.21737962295777
 20
1.900004228102863
 30
0.0
 11
19.21737962295777
 21
1.900004228102863
 31
0.0
  0
LINE
  5
949
330
7DC
100
AcDbEntity
  8
0
370
     0
100
AcDbLine
 10
19.21737962295777
 20
1.900004228102863
 30
0.0
 11
19.22058826779961
 21
1.877543714209969
 31
0.0
  0
LINE
  5
94A
330
7DC
100
AcDbEntity
  8
0
370
     0
100
AcDbLine
 10
19.22058826779961
 20
1.877543714209969
 30
0.0
 11
19.21256665569502
 21
1.877543714209969
 31
0.0
  0
LINE
  5
94B
330
7DC
100
AcDbEntity
  8
0
370
     0
100
AcDbLine
 10
19.21256665569502
 20
1.877543714209969
 30
0.0
 11
19.21737962295777
 21
1.900004228102863
 31
0.0
  0
LINE
  5
94C
330
7DC
100
AcDbEntity
  8
0
370
     0
100
AcDbLine
 10
19.21737962295777
 20
1.900004228102863
 30
0.0
 11
19.21737962295777
 21
1.900004228102863
 31
0.0
  0
LINE
  5
94D
330
7DC
100
AcDbEntity
  8
0
370
     0
100
AcDbLine
 10
19.21737962295777
 20
1.900004228102863
 30
0.0
 11
19.21737962295777
 21
1.900004228102863
 31
0.0
  0
LINE
  5
94E
330
7DC
100
AcDbEntity
  8
0
370
     0
100
AcDbLine
 10
19.27834387495278
 20
1.916047452312074
 30
0.0
 11
19.27834387495278
 21
1.94332093346773
 31
0.0
  0
LINE
  5
94F
330
7DC
100
AcDbEntity
  8
0
370
     0
100
AcDbLine
 10
19.27834387495278
 20
1.851874555475235
 30
0.0
 11
19.31684761305487
 21
1.851874555475234
 31
0.0
  0
LINE
  5
950
330
7DC
100
AcDbEntity
  8
0
370
     0
100
AcDbLine
 10
19.31684761305487
 20
1.851874555475234
 30
0.0
 11
19.32326490273856
 21
1.851874555475234
 31
0.0
  0
LINE
  5
951
330
7DC
100
AcDbEntity
  8
0
370
     0
100
AcDbLine
 10
19.32326490273856
 20
1.851874555475234
 30
0.0
 11
19.32326490273856
 21
1.858291845158918
 31
0.0
  0
LINE
  5
952
330
7DC
100
AcDbEntity
  8
0
370
     0
100
AcDbLine
 10
19.32326490273856
 20
1.858291845158918
 30
0.0
 11
19.32326490273856
 21
1.90963016262839
 31
0.0
  0
LINE
  5
953
330
7DC
100
AcDbEntity
  8
0
370
     0
100
AcDbLine
 10
19.32326490273856
 20
1.90963016262839
 30
0.0
 11
19.32326490273856
 21
1.916047452312074
 31
0.0
  0
LINE
  5
954
330
7DC
100
AcDbEntity
  8
0
370
     0
100
AcDbLine
 10
19.32326490273856
 20
1.916047452312074
 30
0.0
 11
19.31684761305487
 21
1.916047452312074
 31
0.0
  0
LINE
  5
955
330
7DC
100
AcDbEntity
  8
0
370
     0
100
AcDbLine
 10
19.31684761305487
 20
1.916047452312074
 30
0.0
 11
19.27834387495278
 21
1.916047452312074
 31
0.0
  0
LINE
  5
956
330
7DC
100
AcDbEntity
  8
0
370
     0
100
AcDbLine
 10
19.27834387495278
 20
1.824601074319578
 30
0.0
 11
19.27834387495278
 21
1.851874555475235
 31
0.0
  0
LINE
  5
957
330
7DC
100
AcDbEntity
  8
0
370
     0
100
AcDbLine
 10
19.27834387495278
 20
1.94332093346773
 30
0.0
 11
19.62166887302986
 21
1.94332093346773
 31
0.0
  0
LINE
  5
958
330
7DC
100
AcDbEntity
  8
0
370
     0
100
AcDbLine
 10
19.62166887302986
 20
1.824601074319578
 30
0.0
 11
19.27834387495278
 21
1.824601074319578
 31
0.0
  0
LINE
  5
959
330
7DC
100
AcDbEntity
  8
0
370
     0
100
AcDbLine
 10
19.31043032337119
 20
1.864709134842601
 30
0.0
 11
19.27192658526909
 21
1.864709134842601
 31
0.0
  0
LINE
  5
95A
330
7DC
100
AcDbEntity
  8
0
370
     0
100
AcDbLine
 10
19.27192658526909
 20
1.864709134842601
 30
0.0
 11
19.26550929558541
 21
1.864709134842601
 31
0.0
  0
LINE
  5
95B
330
7DC
100
AcDbEntity
  8
0
370
     0
100
AcDbLine
 10
19.26550929558541
 20
1.864709134842601
 30
0.0
 11
19.26550929558541
 21
1.858291845158918
 31
0.0
  0
LINE
  5
95C
330
7DC
100
AcDbEntity
  8
0
370
     0
100
AcDbLine
 10
19.26550929558541
 20
1.858291845158918
 30
0.0
 11
19.26550929558541
 21
1.818183784635893
 31
0.0
  0
LINE
  5
95D
330
7DC
100
AcDbEntity
  8
0
370
     0
100
AcDbLine
 10
19.26550929558541
 20
1.818183784635893
 30
0.0
 11
19.26550929558541
 21
1.811766494952208
 31
0.0
  0
LINE
  5
95E
330
7DC
100
AcDbEntity
  8
0
370
     0
100
AcDbLine
 10
19.26550929558541
 20
1.811766494952208
 30
0.0
 11
19.27192658526909
 21
1.811766494952208
 31
0.0
  0
LINE
  5
95F
330
7DC
100
AcDbEntity
  8
0
370
     0
100
AcDbLine
 10
19.27192658526909
 20
1.811766494952208
 30
0.0
 11
19.62166887302986
 21
1.811766494952208
 31
0.0
  0
LINE
  5
960
330
7DC
100
AcDbEntity
  8
0
370
     0
100
AcDbLine
 10
19.62166887302986
 20
1.956155512835098
 30
0.0
 11
19.27192658526909
 21
1.956155512835098
 31
0.0
  0
LINE
  5
961
330
7DC
100
AcDbEntity
  8
0
370
     0
100
AcDbLine
 10
19.27192658526909
 20
1.956155512835098
 30
0.0
 11
19.26550929558541
 21
1.956155512835098
 31
0.0
  0
LINE
  5
962
330
7DC
100
AcDbEntity
  8
0
370
     0
100
AcDbLine
 10
19.26550929558541
 20
1.956155512835098
 30
0.0
 11
19.26550929558541
 21
1.949738223151414
 31
0.0
  0
LINE
  5
963
330
7DC
100
AcDbEntity
  8
0
370
     0
100
AcDbLine
 10
19.26550929558541
 20
1.949738223151414
 30
0.0
 11
19.26550929558541
 21
1.949738223151414
 31
0.0
  0
LINE
  5
964
330
7DC
100
AcDbEntity
  8
0
370
     0
100
AcDbLine
 10
19.31043032337119
 20
1.903212872944705
 30
0.0
 11
19.31043032337119
 21
1.864709134842601
 31
0.0
  0
LINE
  5
965
330
7DC
100
AcDbEntity
  8
0
370
     0
100
AcDbLine
 10
19.26550929558541
 20
1.949738223151414
 30
0.0
 11
19.26550929558541
 21
1.90963016262839
 31
0.0
  0
LINE
  5
966
330
7DC
100
AcDbEntity
  8
0
370
     0
100
AcDbLine
 10
19.26550929558541
 20
1.90963016262839
 30
0.0
 11
19.26550929558541
 21
1.903212872944705
 31
0.0
  0
LINE
  5
967
330
7DC
100
AcDbEntity
  8
0
370
     0
100
AcDbLine
 10
19.26550929558541
 20
1.903212872944705
 30
0.0
 11
19.27192658526909
 21
1.903212872944705
 31
0.0
  0
LINE
  5
968
330
7DC
100
AcDbEntity
  8
0
370
     0
100
AcDbLine
 10
19.27192658526909
 20
1.903212872944705
 30
0.0
 11
19.31043032337119
 21
1.903212872944705
 31
0.0
  0
ARC
  5
969
330
7DC
100
AcDbEntity
  8
0
100
AcDbCircle
 10
19.62166887302986
 20
1.883961003893653
 30
0.0
 40
0.0593599295740761
100
AcDbArc
 50
269.9999999999996
 51
90.00000000000119
  0
ARC
  5
96A
330
7DC
100
AcDbEntity
  8
0
100
AcDbCircle
 10
19.62166887302986
 20
1.883961003893653
 30
0.0
 40
0.0721945089414444
100
AcDbArc
 50
270.0
 51
90.0
  0
ARC
  5
96B
330
7DC
100
AcDbEntity
  8
0
100
AcDbCircle
 10
19.87595397674585
 20
1.884763165104114
 30
0.0
 40
0.0136367405778293
100
AcDbArc
 50
270.0
 51
89.99999999992651
  0
ARC
  5
96C
330
7DC
100
AcDbEntity
  8
0
100
AcDbCircle
 10
19.87274533190399
 20
1.884763165104114
 30
0.0
 40
0.0056151284732236
100
AcDbArc
 50
270.0
 51
90.0
  0
ARC
  5
96D
330
7DC
100
AcDbEntity
  8
0
100
AcDbCircle
 10
19.77568382543827
 20
1.888773971156418
 30
0.0
 40
0.0032086448418426
100
AcDbArc
 50
0.0
 51
180.0
  0
ARC
  5
96E
330
7DC
100
AcDbEntity
  8
0
100
AcDbCircle
 10
19.77568382543827
 20
1.869522102105366
 30
0.0
 40
0.0032086448418426
100
AcDbArc
 50
180.0
 51
0.0
  0
LINE
  5
96F
330
7DC
100
AcDbEntity
  8
0
370
     0
100
AcDbLine
 10
19.75803627880814
 20
1.87754371420997
 30
0.0
 11
19.75803627880814
 21
1.880752359051814
 31
0.0
  0
ARC
  5
970
330
7DC
100
AcDbEntity
  8
0
100
AcDbCircle
 10
19.77568382543827
 20
1.880752359051814
 30
0.0
 40
0.0176475466301313
100
AcDbArc
 50
0.0
 51
180.0
  0
ARC
  5
971
330
7DC
100
AcDbEntity
  8
0
100
AcDbCircle
 10
19.77568382543827
 20
1.87754371420997
 30
0.0
 40
0.0176475466301313
100
AcDbArc
 50
180.0
 51
0.0
  0
LINE
  5
972
330
7DC
100
AcDbEntity
  8
0
370
     0
100
AcDbLine
 10
19.73236712007341
 20
1.888773971156417
 30
0.0
 11
19.73236712007341
 21
1.888773971156417
 31
0.0
  0
LINE
  5
973
330
7DC
100
AcDbEntity
  8
0
370
     0
100
AcDbLine
 10
19.7387844097571
 20
1.888773971156418
 30
0.0
 11
19.7387844097571
 21
1.885565326314576
 31
0.0
  0
LINE
  5
974
330
7DC
100
AcDbEntity
  8
0
370
     0
100
AcDbLine
 10
19.7387844097571
 20
1.874335069368128
 30
0.0
 11
19.7387844097571
 21
1.869522102105367
 31
0.0
  0
LINE
  5
975
330
7DC
100
AcDbEntity
  8
0
370
     0
100
AcDbLine
 10
19.7387844097571
 20
1.869522102105366
 30
0.0
 11
19.7387844097571
 21
1.869522102105366
 31
0.0
  0
LINE
  5
976
330
7DC
100
AcDbEntity
  8
0
370
     0
100
AcDbLine
 10
19.73557576491526
 20
1.866313457263524
 30
0.0
 11
19.73557576491526
 21
1.866313457263524
 31
0.0
  0
LINE
  5
977
330
7DC
100
AcDbEntity
  8
0
370
     0
100
AcDbLine
 10
19.73236712007341
 20
1.869522102105367
 30
0.0
 11
19.73236712007341
 21
1.888773971156418
 31
0.0
  0
LINE
  5
978
330
7DC
100
AcDbEntity
  8
0
370
     0
100
AcDbLine
 10
19.73236712007341
 20
1.888773971156417
 30
0.0
 11
19.73236712007341
 21
1.888773971156417
 31
0.0
  0
LINE
  5
979
330
7DC
100
AcDbEntity
  8
0
370
     0
100
AcDbLine
 10
19.73236712007341
 20
1.888773971156417
 30
0.0
 11
19.73236712007341
 21
1.888773971156417
 31
0.0
  0
ARC
  5
97A
330
7DC
100
AcDbEntity
  8
0
100
AcDbCircle
 10
19.73557576491526
 20
1.888773971156418
 30
0.0
 40
0.0032086448418426
100
AcDbArc
 50
0.0
 51
180.0
  0
ARC
  5
97B
330
7DC
100
AcDbEntity
  8
0
100
AcDbCircle
 10
19.73557576491526
 20
1.869522102105366
 30
0.0
 40
0.0032086448418426
100
AcDbArc
 50
180.0
 51
0.0
  0
LINE
  5
97C
330
7DC
100
AcDbEntity
  8
0
370
     0
100
AcDbLine
 10
19.71792821828513
 20
1.87754371420997
 30
0.0
 11
19.71792821828513
 21
1.880752359051814
 31
0.0
  0
ARC
  5
97D
330
7DC
100
AcDbEntity
  8
0
100
AcDbCircle
 10
19.73557576491526
 20
1.880752359051814
 30
0.0
 40
0.0176475466301313
100
AcDbArc
 50
15.82662013182531
 51
180.0
  0
ARC
  5
97E
330
7DC
100
AcDbEntity
  8
0
100
AcDbCircle
 10
19.73557576491526
 20
1.87754371420997
 30
0.0
 40
0.0176475466301313
100
AcDbArc
 50
180.0
 51
349.5243183036404
  0
LINE
  5
97F
330
7DC
100
AcDbEntity
  8
0
370
     0
100
AcDbLine
 10
19.47210501064123
 20
1.883659439534931
 30
0.0
 11
19.47210501064123
 21
1.889135848399392
 31
0.0
  0
LINE
  5
980
330
7DC
100
AcDbEntity
  8
0
370
     0
100
AcDbLine
 10
19.43650835302225
 20
1.902826870560537
 30
0.0
 11
19.43650835302225
 21
1.902826870560537
 31
0.0
  0
LINE
  5
981
330
7DC
100
AcDbEntity
  8
0
370
     0
100
AcDbLine
 10
19.44746117075117
 20
1.902826870560539
 30
0.0
 11
19.44746117075117
 21
1.869968417373786
 31
0.0
  0
LINE
  5
982
330
7DC
100
AcDbEntity
  8
0
370
     0
100
AcDbLine
 10
19.44746117075117
 20
1.869968417373786
 30
0.0
 11
19.44746117075117
 21
1.869968417373786
 31
0.0
  0
LINE
  5
983
330
7DC
100
AcDbEntity
  8
0
370
     0
100
AcDbLine
 10
19.44198476188671
 20
1.864492008509327
 30
0.0
 11
19.44198476188671
 21
1.864492008509327
 31
0.0
  0
LINE
  5
984
330
7DC
100
AcDbEntity
  8
0
370
     0
100
AcDbLine
 10
19.43650835302225
 20
1.869968417373786
 30
0.0
 11
19.43650835302225
 21
1.902826870560539
 31
0.0
  0
LINE
  5
985
330
7DC
100
AcDbEntity
  8
0
370
     0
100
AcDbLine
 10
19.43650835302225
 20
1.902826870560537
 30
0.0
 11
19.43650835302225
 21
1.902826870560537
 31
0.0
  0
LINE
  5
986
330
7DC
100
AcDbEntity
  8
0
370
     0
100
AcDbLine
 10
19.43650835302225
 20
1.902826870560537
 30
0.0
 11
19.43650835302225
 21
1.902826870560537
 31
0.0
  0
ARC
  5
987
330
7DC
100
AcDbEntity
  8
0
100
AcDbCircle
 10
19.44198476188671
 20
1.902826870560539
 30
0.0
 40
0.0054764088644597
100
AcDbArc
 50
0.0
 51
180.0
  0
ARC
  5
988
330
7DC
100
AcDbEntity
  8
0
100
AcDbCircle
 10
19.44198476188671
 20
1.869968417373786
 30
0.0
 40
0.0054764088644597
100
AcDbArc
 50
180.0
 51
0.0
  0
LINE
  5
989
330
7DC
100
AcDbEntity
  8
0
370
     0
100
AcDbLine
 10
19.41186451313219
 20
1.883659439534931
 30
0.0
 11
19.41186451313219
 21
1.889135848399392
 31
0.0
  0
ARC
  5
98A
330
7DC
100
AcDbEntity
  8
0
100
AcDbCircle
 10
19.44198476188671
 20
1.889135848399392
 30
0.0
 40
0.0301202487545229
100
AcDbArc
 50
0.0
 51
180.0
  0
ARC
  5
98B
330
7DC
100
AcDbEntity
  8
0
100
AcDbCircle
 10
19.44198476188671
 20
1.883659439534931
 30
0.0
 40
0.0301202487545229
100
AcDbArc
 50
180.0
 51
0.0
  0
LINE
  5
98C
330
7DC
100
AcDbEntity
  8
0
100
AcDbLine
 10
19.38892895482552
 20
1.853478877896154
 30
0.0
 11
19.35363592611232
 21
1.853478877896154
 31
0.0
  0
ARC
  5
98D
330
7DC
100
AcDbEntity
  8
0
100
AcDbCircle
 10
19.38892895482552
 20
1.871601468940064
 30
0.0
 40
0.0181225910439099
100
AcDbArc
 50
269.9999999999996
 51
0.0000000000004198
  0
ARC
  5
98E
330
7DC
100
AcDbEntity
  8
0
100
AcDbCircle
 10
19.38190710912763
 20
1.900806389313324
 30
0.0
 40
0.0040108060523028
100
AcDbArc
 50
0.0
 51
90.0
  0
ARC
  5
98F
330
7DC
100
AcDbEntity
  8
0
100
AcDbCircle
 10
19.38190710912763
 20
1.868719940894904
 30
0.0
 40
0.0040108060523028
100
AcDbArc
 50
270.0
 51
0.0
  0
LINE
  5
990
330
7DC
100
AcDbEntity
  8
0
100
AcDbLine
 10
19.63771209723908
 20
1.895965521160327
 30
0.0
 11
19.63771209723908
 21
1.905664153870984
 31
0.0
  0
ARC
  5
991
330
7DC
100
AcDbEntity
  8
0
100
AcDbCircle
 10
19.62412015395614
 20
1.895965521160327
 30
0.0
 40
0.0135919432829324
100
AcDbArc
 50
294.7550654010758
 51
0.0
  0
ARC
  5
992
330
7DC
100
AcDbEntity
  8
0
100
AcDbCircle
 10
19.61122489703418
 20
1.898399905681942
 30
0.0
 40
0.0080216121046044
100
AcDbArc
 50
270.0
 51
90.0
  0
MTEXT
  5
993
330
7DC
100
AcDbEntity
  8
BORDER TEXT
100
AcDbMText
 10
21.77876742710247
 20
0.2303731767578773
 30
0.0
 40
0.05
 41
0.8742857143
 46
0.0
 71
     1
 72
     1
  1
REVISED 03-01-2012
  7
ROMANS
 73
     1
 44
0.9
  0
LWPOLYLINE
  5
994
330
7DC
100
AcDbEntity
  8
0
  6
Continuous
 62
     5
100
AcDbPolyline
 90
        2
 70
     0
 43
0.0300000002
 10
20.27776893630247
 20
1.781601112057877
 10
20.27776893630247
 20
2.407858830557877
  0
ATTDEF
  5
995
330
7DC
100
AcDbEntity
  8
ATTRIBUTES
100
AcDbText
 10
19.01589285434532
 20
1.440028758755908
 30
0.0
 40
0.18
  1
DESCRIPTION
  7
ROMANS
 72
     4
 11
19.86874999720246
 21
1.530028758755908
 31
0.0
100
AcDbAttributeDefinition
280
     0
  3
TITLE
  2
PART_DESCIPTION
 70
     0
280
     0
  0
ATTDEF
  5
996
330
7DC
100
AcDbEntity
  8
ATTRIBUTES
100
AcDbText
 10
18.94732142577389
 20
1.125000001857877
 30
0.0
 40
0.18
  1
PUMP MODEL
  7
ROMANS
 72
     4
 11
19.86874999720246
 21
1.215000001857877
 31
0.0
100
AcDbAttributeDefinition
280
     0
  3
PUMP MODEL
  2
PUMP_MODEL
 70
     0
280
     0
  0
ATTDEF
  5
997
330
7DC
100
AcDbEntity
  8
ATTRIBUTES
100
AcDbText
 10
20.88678600170262
 20
0.3650895942328609
 30
0.0
 40
0.1875
  1
XX-XXX
  7
ROMANS
100
AcDbAttributeDefinition
280
     0
  3
DRAWING NO.
  2
DWG_NO
 70
     0
280
     0
  0
ATTDEF
  5
998
330
7DC
100
AcDbEntity
  8
ATTRIBUTES
100
AcDbText
 10
22.25831353475474
 20
0.3650895942328609
 30
0.0
 40
0.1875
  1
X
 41
1.995192725918025
  7
ROMANS
 72
     5
 11
22.56115528779587
 21
0.3650895942328609
 31
0.0
100
AcDbAttributeDefinition
280
     0
  3
REV.
  2
REV
 70
     0
280
     0
  0
ATTDEF
  5
999
330
7DC
100
AcDbEntity
  8
ATTRIBUTES
100
AcDbText
 10
16.42926094591402
 20
0.3490466283924443
 30
0.0
 40
0.1
  1
1 OF 1
  7
ROMANS
100
AcDbAttributeDefinition
280
     0
  3
SHEET NO.
  2
SHT_NO
 70
     0
280
     0
  0
ATTDEF
  5
99A
330
7DC
100
AcDbEntity
  8
ATTRIBUTES
100
AcDbText
 10
15.26272581282391
 20
0.3490939618347451
 30
0.0
 40
0.1
  1
1/1
  7
ROMANS
100
AcDbAttributeDefinition
280
     0
  3
SCALE
  2
SCALE
 70
     0
280
     0
  0
ATTDEF
  5
99B
330
7DC
100
AcDbEntity
  8
ATTRIBUTES
100
AcDbText
 10
17.78955034124723
 20
0.8457522810399531
 30
0.0
 40
0.1
  1
KEN SMITH
  7
ROMANS
100
AcDbAttributeDefinition
280
     0
  3
DRAWN BY
  2
DRAWN_BY
 70
     0
280
     0
  0
ATTDEF
  5
99C
330
7DC
100
AcDbEntity
  8
ATTRIBUTES
100
AcDbText
 10
19.7089839207517
 20
0.8461042887295292
 30
0.0
 40
0.1
  1
00/00/00
  7
ROMANS
100
AcDbAttributeDefinition
280
     0
  3
DRAWN DATE
  2
DRWN_DATE
 70
     0
280
     0
  0
ATTDEF
  5
99D
330
7DC
100
AcDbEntity
  8
ATTRIBUTES
100
AcDbText
 10
19.7089839207517
 20
0.5961042887295292
 30
0.0
 40
0.1
  1
-
  7
ROMANS
100
AcDbAttributeDefinition
280
     0
  3
CHECKED DATE
  2
CHKD_DATE
 70
     0
280
     0
  0
ATTDEF
  5
99E
330
7DC
100
AcDbEntity
  8
ATTRIBUTES
100
AcDbText
 10
17.78955034124723
 20
0.5957522810399532
 30
0.0
 40
0.1
  1
_
  7
ROMANS
100
AcDbAttributeDefinition
280
     0
  3
CHECKED BY
  2
CHKD_BY
 70
     0
280
     0
  0
ATTDEF
  5
99F
330
7DC
100
AcDbEntity
  8
ATTRIBUTES
100
AcDbText
 10
19.7089839207517
 20
0.3461042887295291
 30
0.0
 40
0.1
  1
-
  7
ROMANS
100
AcDbAttributeDefinition
280
     0
  3
APPROVED DATE
  2
APVD_DATE
 70
     0
280
     0
  0
ATTDEF
  5
9A0
330
7DC
100
AcDbEntity
  8
ATTRIBUTES
100
AcDbText
 10
17.78955034124723
 20
0.3457522810399531
 30
0.0
 40
0.1
  1
_
  7
ROMANS
100
AcDbAttributeDefinition
280
     0
  3
APPROVED BY
  2
APVD_BY
 70
     0
280
     0
  0
ATTDEF
  5
9A1
330
7DC
100
AcDbEntity
  8
ATTRIBUTES
100
AcDbText
 10
21.21154055632008
 20
0.82894931729441
 30
0.0
 40
0.1
  1
.
  7
ROMANS
100
AcDbAttributeDefinition
280
     0
  3
ASSY NO.
  2
ASSY_NO
 70
     0
280
     0
  0
ENDBLK
  5
9A5
330
7DC
100
AcDbEntity
  8
0
100
AcDbBlockEnd
  0
BLOCK
  5
9D1
330
9C3
100
AcDbEntity
  8
0
100
AcDbBlockBegin
  2
REVBLK
 70
     0
 10
0.0
 20
0.0
 30
0.0
  3
REVBLK
  1

  0
LINE
  5
9C4
330
9C3
100
AcDbEntity
  8
BORDER2
 62
     5
100
AcDbLine
 39
0.03
 10
0.0
 20
0.0
 30
0.0
 11
0.0
 21
-0.3999999999999968
 31
0.0
  0
LINE
  5
9C5
330
9C3
100
AcDbEntity
  8
BORDER2
 62
     5
100
AcDbLine
 10
0.375
 20
0.0
 30
0.0
 11
0.375
 21
-0.3999999999999968
 31
0.0
  0
TEXT
  5
9C6
330
9C3
100
AcDbEntity
  8
BORDER2
 62
     2
100
AcDbText
 10
0.1132358642238032
 20
-0.1647638390054169
 30
0.0
 40
0.1
  1
A   REVISED AND REDRAWN ON CAD.
 41
1.199999999999999
  7
ROMANS
100
AcDbText
  0
TEXT
  5
9C7
330
9C3
100
AcDbEntity
  8
BORDER2
 62
     2
100
AcDbText
 10
4.175515119973159
 20
-0.2613057322282799
 30
0.0
 40
0.1
  1
-
 41
1.199999999999999
  7
ROMANS
100
AcDbText
  0
LINE
  5
9C8
330
9C3
100
AcDbEntity
  8
BORDER2
 62
     5
100
AcDbLine
 10
5.0
 20
0.0
 30
0.0
 11
5.0
 21
-0.3999999999999968
 31
0.0
  0
LINE
  5
9C9
330
9C3
100
AcDbEntity
  8
BORDER2
 62
     5
100
AcDbLine
 10
4.5
 20
0.0
 30
0.0
 11
4.500000000000007
 21
-0.3999999999999968
 31
0.0
  0
LINE
  5
9CA
330
9C3
100
AcDbEntity
  8
BORDER2
 62
     5
100
AcDbLine
 10
4.0
 20
0.0
 30
0.0
 11
4.0
 21
-0.3999999999999968
 31
0.0
  0
LINE
  5
9CB
330
9C3
100
AcDbEntity
  8
BORDER2
 62
     5
100
AcDbLine
 10
0.0
 20
-0.3999999999999986
 30
0.0
 11
6.0
 21
-0.3999999999999986
 31
0.0
  0
TEXT
  5
9CC
330
9C3
100
AcDbEntity
  8
BORDER2
 62
     2
100
AcDbText
 10
0.583812803127227
 20
-0.3449566003761362
 30
0.0
 40
0.1
  1
SEE ECN #05000
 41
1.199999999999999
  7
ROMANS
100
AcDbText
  0
LINE
  5
9CD
330
9C3
100
AcDbEntity
  8
BORDER2
 62
     5
100
AcDbLine
 10
5.5
 20
0.0
 30
0.0
 11
5.5
 21
-0.3999999999999968
 31
0.0
  0
TEXT
  5
9CE
330
9C3
100
AcDbEntity
  8
BORDER2
 62
     2
100
AcDbText
 10
4.675515119973159
 20
-0.2613057322282799
 30
0.0
 40
0.1
  1
-
 41
1.199999999999999
  7
ROMANS
100
AcDbText
  0
TEXT
  5
9CF
330
9C3
100
AcDbEntity
  8
BORDER2
 62
     2
100
AcDbText
 10
5.175515119973159
 20
-0.2613057322282799
 30
0.0
 40
0.1
  1
-
 41
1.199999999999999
  7
ROMANS
100
AcDbText
  0
TEXT
  5
9D0
330
9C3
100
AcDbEntity
  8
BORDER2
 62
     2
100
AcDbText
 10
5.675515119973159
 20
-0.2613057322282799
 30
0.0
 40
0.1
  1
-
 41
1.199999999999999
  7
ROMANS
100
AcDbText
  0
ENDBLK
  5
9D2
330
9C3
100
AcDbEntity
  8
0
100
AcDbBlockEnd
  0
BLOCK
  5
9F0
330
9EB
100
AcDbEntity
  8
0
100
AcDbBlockBegin
  2
NOTES_1994
 70
     0
 10
0.0
 20
0.0
 30
0.0
  3
NOTES_1994
  1

  0
TEXT
  5
9EC
330
9EB
100
AcDbEntity
  8
0
100
AcDbText
 10
0.3350005800322382
 20
-0.3881808276864227
 30
0.0
 40
0.12
  1
%%UNOTES:  UNLESS OTHERWISE SPECIFIED
  7
ROMANS
100
AcDbText
  0
TEXT
  5
9ED
330
9EB
100
AcDbEntity
  8
0
100
AcDbText
 10
0.3350005800322383
 20
-0.6579482695468926
 30
0.0
 40
0.12
  1
  1.  DIMENSIONS AND TOLERANCES PER ASME Y14.5M-1994.
  7
ROMANS
100
AcDbText
  0
TEXT
  5
9EE
330
9EB
100
AcDbEntity
  8
0
100
AcDbText
 10
0.3350005800322383
 20
-0.8579482695468918
 30
0.0
 40
0.12
  1
  2.  * INDICATES DIMENSIONS AND/OR FEATURES MODIFIED
  7
ROMANS
100
AcDbText
  0
TEXT
  5
9EF
330
9EB
100
AcDbEntity
  8
0
100
AcDbText
 10
0.3887108062533518
 20
-1.057948269546891
 30
0.0
 40
0.12
  1
     ON CURRENT REVISION LEVEL.
  7
ROMANS
100
AcDbText
  0
ENDBLK
  5
9F1
330
9EB
100
AcDbEntity
  8
0
100
AcDbBlockEnd
  0
BLOCK
  5
E06
330
E05
100
AcDbEntity
  8
0
100
AcDbBlockBegin
  2
_ACMFILLEDHALF
 70
     0
 10
0.0
 20
0.0
 30
0.0
  3
_ACMFILLEDHALF
  1

  0
TRACE
  5
E08
330
E05
100
AcDbEntity
  8
0
 62
     0
100
AcDbTrace
 10
-0.8
 20
0.0
 30
0.0
 11
-1.0
 21
0.166666666
 31
0.0
 12
0.0
 22
0.0
 32
0.0
 13
0.0
 23
0.0
 33
0.0
  0
LINE
  5
E09
330
E05
100
AcDbEntity
  8
0
 62
     0
100
AcDbLine
 10
-1.0
 20
0.0
 30
0.0
 11
-0.8
 21
0.0
 31
0.0
  0
ENDBLK
  5
E07
330
E05
100
AcDbEntity
  8
0
100
AcDbBlockEnd
  0
ENDSEC
  0
SECTION
  2
ENTITIES
  0
LINE
  5
212
330
207
100
AcDbEntity
  8
0
  6
Continuous
100
AcDbLine
 10
6.223657713985899
 20
11.80853070536843
 30
0.0
 11
6.1842876351859
 21
11.76916062666844
 31
0.0
  0
LINE
  5
213
330
207
100
AcDbEntity
  8
0
  6
Continuous
100
AcDbLine
 10
5.889012044685899
 20
9.643176374668437
 30
0.0
 11
5.889012044685899
 21
9.338058264468436
 31
0.0
  0
LINE
  5
214
330
207
100
AcDbEntity
  8
0
  6
Continuous
100
AcDbLine
 10
5.889012044685899
 20
9.003412595168438
 30
0.0
 11
5.889012044685899
 21
8.934514957368437
 31
0.0
  0
LINE
  5
215
330
207
100
AcDbEntity
  8
0
  6
Continuous
100
AcDbLine
 10
6.8508307393859
 20
12.03294015426844
 30
0.0
 11
6.835432915785899
 21
12.01754233056843
 31
0.0
  0
LINE
  5
216
330
207
100
AcDbEntity
  8
0
  6
Continuous
100
AcDbLine
 10
6.1842876351859
 20
11.76916062666844
 30
0.0
 11
6.1842876351859
 21
9.682546453468436
 31
0.0
  0
LINE
  5
217
330
207
100
AcDbEntity
  8
0
  6
Continuous
100
AcDbLine
 10
6.7622480622859
 20
8.678609445568437
 30
0.0
 11
6.722877983485901
 21
8.717979524268438
 31
0.0
  0
LINE
  5
218
330
207
100
AcDbEntity
  8
0
  6
Continuous
100
AcDbLine
 10
7.897673461985899
 20
8.186483461368437
 30
0.0
 11
8.6047600761859
 21
8.186483461368437
 31
0.0
  0
LINE
  5
21B
330
207
100
AcDbEntity
  8
0
  6
Continuous
100
AcDbLine
 10
7.838618343885899
 20
8.245538579468437
 30
0.0
 11
8.6638151942859
 21
8.245538579468437
 31
0.0
  0
LINE
  5
21D
330
207
100
AcDbEntity
  8
0
  6
Continuous
100
AcDbLine
 10
7.897673461985899
 20
8.186483461368437
 30
0.0
 11
7.838618343885899
 21
8.245538579468437
 31
0.0
  0
LINE
  5
21F
330
207
100
AcDbEntity
  8
0
  6
Continuous
100
AcDbLine
 10
6.7031929441859
 20
11.80853070536843
 30
0.0
 11
6.7031929441859
 21
11.85577479986843
 31
0.0
  0
LINE
  5
220
330
207
100
AcDbEntity
  8
0
  6
Continuous
100
AcDbLine
 10
6.722877983485901
 20
8.717979524268438
 30
0.0
 11
6.722877983485901
 21
8.737664563668436
 31
0.0
  0
LINE
  5
221
330
207
100
AcDbEntity
  8
0
  6
Continuous
100
AcDbLine
 10
6.774838816285898
 20
8.67655450957392
 30
0.0
 11
6.7748388162859
 21
8.658924406168436
 31
0.0
  0
LINE
  5
222
330
207
100
AcDbEntity
  8
0
  6
Continuous
100
AcDbLine
 10
6.801618140985901
 20
11.85577479986843
 30
0.0
 11
6.801618140985901
 21
11.87545983926844
 31
0.0
  0
LINE
  5
223
330
207
100
AcDbEntity
  8
0
  6
Continuous
100
AcDbLine
 10
7.838618343885899
 20
8.599869288068436
 30
0.0
 11
8.6638151942859
 21
8.599869288068436
 31
0.0
  0
LINE
  5
224
330
207
100
AcDbEntity
  8
0
  6
Continuous
100
AcDbLine
 10
7.884484485585899
 20
8.629790547968436
 30
0.0
 11
8.617949052585901
 21
8.629790547968436
 31
0.0
  0
LINE
  5
225
330
207
100
AcDbEntity
  8
0
  6
Continuous
100
AcDbLine
 10
9.7275947218859
 20
8.658924406168436
 30
0.0
 11
8.647082910785899
 21
8.658924406168436
 31
0.0
  0
LINE
  5
226
330
207
100
AcDbEntity
  8
0
  6
Continuous
100
AcDbLine
 10
6.7748388162859
 20
8.658924406168436
 30
0.0
 11
7.855350627385901
 21
8.658924406168436
 31
0.0
  0
LINE
  5
22B
330
207
100
AcDbEntity
  8
0
  6
Continuous
100
AcDbLine
 10
9.779555554685899
 20
8.717979524268438
 30
0.0
 11
9.228374452285899
 21
8.717979524268438
 31
0.0
  0
LINE
  5
22C
330
207
100
AcDbEntity
  8
0
  6
Continuous
100
AcDbLine
 10
7.2740590858859
 20
8.717979524268438
 30
0.0
 11
6.722877983485901
 21
8.717979524268438
 31
0.0
  0
LINE
  5
22D
330
207
100
AcDbEntity
  8
0
  6
Continuous
100
AcDbLine
 10
6.085862438385899
 20
8.737664563668436
 30
0.0
 11
10.4165710997859
 21
8.737664563668436
 31
0.0
  0
LINE
  5
22E
330
207
100
AcDbEntity
  8
0
  6
Continuous
100
AcDbLine
 10
6.822822066685899
 20
11.99873534506843
 30
0.0
 11
6.822822066685899
 21
11.87545983926844
 31
0.0
  0
LINE
  5
22F
330
207
100
AcDbEntity
  8
0
  6
Continuous
100
AcDbLine
 10
6.8508307393859
 20
12.03294015426844
 30
0.0
 11
6.8508307393859
 21
12.12152283136844
 31
0.0
  0
LINE
  5
230
330
207
100
AcDbEntity
  8
0
  6
Continuous
100
AcDbLine
 10
6.869886395985901
 20
11.99873534506843
 30
0.0
 11
6.869886395985901
 21
11.87545983926844
 31
0.0
  0
LINE
  5
231
330
207
100
AcDbEntity
  8
0
  6
Continuous
100
AcDbLine
 10
6.9514042054859
 20
11.99873534506843
 30
0.0
 11
6.9514042054859
 21
11.87545983926844
 31
0.0
  0
LINE
  5
235
330
207
100
AcDbEntity
  8
0
  6
Continuous
100
AcDbLine
 10
7.045532863985899
 20
11.99873534506843
 30
0.0
 11
7.045532863985899
 21
11.87545983926844
 31
0.0
  0
LINE
  5
236
330
207
100
AcDbEntity
  8
0
  6
Continuous
100
AcDbLine
 10
7.1270506733859
 20
11.99873534506843
 30
0.0
 11
7.1270506733859
 21
11.87545983926844
 31
0.0
  0
LINE
  5
237
330
207
100
AcDbEntity
  8
0
  6
Continuous
100
AcDbLine
 10
7.146106329985901
 20
12.03294015426844
 30
0.0
 11
7.146106329985901
 21
12.12152283136844
 31
0.0
  0
LINE
  5
238
330
207
100
AcDbEntity
  8
0
  6
Continuous
100
AcDbLine
 10
7.174115002685899
 20
11.99873534506843
 30
0.0
 11
7.174115002685899
 21
11.87545983926844
 31
0.0
  0
LINE
  5
239
330
207
100
AcDbEntity
  8
0
  6
Continuous
100
AcDbLine
 10
7.1953189283859
 20
11.85577479986843
 30
0.0
 11
7.1953189283859
 21
11.87545983926844
 31
0.0
  0
LINE
  5
23B
330
207
100
AcDbEntity
  8
0
  6
Continuous
100
AcDbLine
 10
7.2740590858859
 20
8.717979524268438
 30
0.0
 11
7.2740590858859
 21
8.737664563668436
 31
0.0
  0
LINE
  5
23C
330
207
100
AcDbEntity
  8
0
  6
Continuous
100
AcDbLine
 10
7.2937441252859
 20
11.80853070536843
 30
0.0
 11
7.2937441252859
 21
11.85577479986843
 31
0.0
  0
LINE
  5
23F
330
207
100
AcDbEntity
  8
0
  6
Continuous
100
AcDbLine
 10
7.838618343885899
 20
8.599869288068436
 30
0.0
 11
7.838618343885899
 21
8.245538579468437
 31
0.0
  0
LINE
  5
240
330
207
100
AcDbEntity
  8
0
  6
Continuous
100
AcDbLine
 10
9.3563272081859
 20
12.03294015426844
 30
0.0
 11
9.3409293844859
 21
12.01754233056843
 31
0.0
  0
LINE
  5
242
330
207
100
AcDbEntity
  8
0
  6
Continuous
100
AcDbLine
 10
5.928382123385899
 20
9.682546453468436
 30
0.0
 11
10.5740514147859
 21
9.682546453468436
 31
0.0
  0
LINE
  5
243
330
207
100
AcDbEntity
  8
0
  6
Continuous
100
AcDbLine
 10
9.267744530985901
 20
8.678609445568437
 30
0.0
 11
9.228374452285899
 21
8.717979524268438
 31
0.0
  0
LINE
  5
244
330
207
100
AcDbEntity
  8
0
  6
Continuous
100
AcDbLine
 10
8.093736454085899
 20
8.629790547968434
 30
0.0
 11
8.093736454085899
 21
8.599869288068436
 31
0.0
  0
LINE
  5
248
330
207
100
AcDbEntity
  8
0
  6
Continuous
100
AcDbLine
 10
8.4086970840859
 20
8.629790547968434
 30
0.0
 11
8.4086970840859
 21
8.599869288068436
 31
0.0
  0
LINE
  5
249
330
207
100
AcDbEntity
  8
0
  6
Continuous
100
AcDbLine
 10
8.6638151942859
 20
8.599869288068436
 30
0.0
 11
8.6638151942859
 21
8.245538579468437
 31
0.0
  0
LINE
  5
24A
330
207
100
AcDbEntity
  8
0
  6
Continuous
100
AcDbLine
 10
7.234689007185899
 20
8.678609445568437
 30
0.0
 11
7.2740590858859
 21
8.717979524268438
 31
0.0
  0
LINE
  5
24C
330
207
100
AcDbEntity
  8
0
  6
Continuous
100
AcDbLine
 10
7.146106329985901
 20
12.03294015426844
 30
0.0
 11
7.1615041536859
 21
12.01754233056843
 31
0.0
  0
LINE
  5
24D
330
207
100
AcDbEntity
  8
0
  6
Continuous
100
AcDbLine
 10
9.208689412885899
 20
11.80853070536843
 30
0.0
 11
9.208689412885899
 21
11.85577479986843
 31
0.0
  0
LINE
  5
24E
330
207
100
AcDbEntity
  8
0
  6
Continuous
100
AcDbLine
 10
9.228374452285899
 20
8.717979524268438
 30
0.0
 11
9.228374452285899
 21
8.737664563668436
 31
0.0
  0
LINE
  5
24F
330
207
100
AcDbEntity
  8
0
  6
Continuous
100
AcDbLine
 10
9.3071146097859
 20
11.85577479986843
 30
0.0
 11
9.3071146097859
 21
11.87545983926844
 31
0.0
  0
LINE
  5
250
330
207
100
AcDbEntity
  8
0
  6
Continuous
100
AcDbLine
 10
9.3283185354859
 20
11.99873534506843
 30
0.0
 11
9.3283185354859
 21
11.87545983926844
 31
0.0
  0
LINE
  5
251
330
207
100
AcDbEntity
  8
0
  6
Continuous
100
AcDbLine
 10
9.330647148885899
 20
11.99873534506843
 30
0.0
 11
9.330647148885899
 21
11.87545983926844
 31
0.0
  0
LINE
  5
252
330
207
100
AcDbEntity
  8
0
  6
Continuous
100
AcDbLine
 10
9.3563272081859
 20
12.03294015426844
 30
0.0
 11
9.3563272081859
 21
12.12152283136844
 31
0.0
  0
LINE
  5
253
330
207
100
AcDbEntity
  8
0
  6
Continuous
100
AcDbLine
 10
9.369653787985901
 20
11.99873534506843
 30
0.0
 11
9.369653787985901
 21
11.87545983926844
 31
0.0
  0
LINE
  5
254
330
207
100
AcDbEntity
  8
0
  6
Continuous
100
AcDbLine
 10
9.375382864785899
 20
11.99873534506843
 30
0.0
 11
9.375382864785899
 21
11.87545983926844
 31
0.0
  0
LINE
  5
255
330
207
100
AcDbEntity
  8
0
  6
Continuous
100
AcDbLine
 10
9.4569006741859
 20
11.99873534506843
 30
0.0
 11
9.4569006741859
 21
11.87545983926844
 31
0.0
  0
LINE
  5
256
330
207
100
AcDbEntity
  8
0
  6
Continuous
100
AcDbLine
 10
9.4649583643859
 20
11.99873534506843
 30
0.0
 11
9.4649583643859
 21
11.87545983926844
 31
0.0
  0
LINE
  5
259
330
207
100
AcDbEntity
  8
0
  6
Continuous
100
AcDbLine
 10
9.542971642585898
 20
11.99873534506843
 30
0.0
 11
9.542971642585898
 21
11.87545983926844
 31
0.0
  0
LINE
  5
25A
330
207
100
AcDbEntity
  8
0
  6
Continuous
100
AcDbLine
 10
9.551029332685899
 20
11.99873534506843
 30
0.0
 11
9.551029332685899
 21
11.87545983926844
 31
0.0
  0
LINE
  5
25B
330
207
100
AcDbEntity
  8
0
  6
Continuous
100
AcDbLine
 10
9.632547142185899
 20
11.99873534506843
 30
0.0
 11
9.632547142185899
 21
11.87545983926844
 31
0.0
  0
LINE
  5
25C
330
207
100
AcDbEntity
  8
0
  6
Continuous
100
AcDbLine
 10
9.6382762188859
 20
11.99873534506843
 30
0.0
 11
9.6382762188859
 21
11.87545983926844
 31
0.0
  0
LINE
  5
25D
330
207
100
AcDbEntity
  8
0
  6
Continuous
100
AcDbLine
 10
9.6516027987859
 20
12.03294015426844
 30
0.0
 11
9.6516027987859
 21
12.12152283136844
 31
0.0
  0
LINE
  5
25E
330
207
100
AcDbEntity
  8
0
  6
Continuous
100
AcDbLine
 10
9.6772828580859
 20
11.99873534506843
 30
0.0
 11
9.6772828580859
 21
11.87545983926844
 31
0.0
  0
LINE
  5
25F
330
207
100
AcDbEntity
  8
0
  6
Continuous
100
AcDbLine
 10
9.6796114714859
 20
11.99873534506843
 30
0.0
 11
9.6796114714859
 21
11.87545983926844
 31
0.0
  0
LINE
  5
260
330
207
100
AcDbEntity
  8
0
  6
Continuous
100
AcDbLine
 10
9.700815397185898
 20
11.85577479986843
 30
0.0
 11
9.700815397185898
 21
11.87545983926844
 31
0.0
  0
LINE
  5
261
330
207
100
AcDbEntity
  8
0
  6
Continuous
100
AcDbLine
 10
9.7275947218859
 20
8.676554339191016
 30
0.0
 11
9.7275947218859
 21
8.658924406168436
 31
0.0
  0
LINE
  5
262
330
207
100
AcDbEntity
  8
0
  6
Continuous
100
AcDbLine
 10
9.779555554685899
 20
8.717979524268438
 30
0.0
 11
9.779555554685899
 21
8.737664563668436
 31
0.0
  0
LINE
  5
263
330
207
100
AcDbEntity
  8
0
  6
Continuous
100
AcDbLine
 10
9.799240593985899
 20
11.80853070536843
 30
0.0
 11
9.799240593985899
 21
11.85577479986843
 31
0.0
  0
LINE
  5
265
330
207
100
AcDbEntity
  8
0
  6
Continuous
100
AcDbLine
 10
6.1842876351859
 20
11.76916062666844
 30
0.0
 11
10.3181459029859
 21
11.76916062666844
 31
0.0
  0
LINE
  5
267
330
207
100
AcDbEntity
  8
0
  6
Continuous
100
AcDbLine
 10
10.2787758241859
 20
11.80853070536843
 30
0.0
 11
6.223657713985899
 21
11.80853070536843
 31
0.0
  0
LINE
  5
26B
330
207
100
AcDbEntity
  8
0
  6
Continuous
100
AcDbLine
 10
6.7031929441859
 20
11.85577479986843
 30
0.0
 11
7.2937441252859
 21
11.85577479986843
 31
0.0
  0
LINE
  5
26C
330
207
100
AcDbEntity
  8
0
  6
Continuous
100
AcDbLine
 10
9.208689412885899
 20
11.85577479986843
 30
0.0
 11
9.799240593985899
 21
11.85577479986843
 31
0.0
  0
LINE
  5
26D
330
207
100
AcDbEntity
  8
0
  6
Continuous
100
AcDbLine
 10
6.801618140985901
 20
11.87545983926844
 30
0.0
 11
7.1953189283859
 21
11.87545983926844
 31
0.0
  0
LINE
  5
26E
330
207
100
AcDbEntity
  8
0
  6
Continuous
100
AcDbLine
 10
9.3071146097859
 20
11.87545983926844
 30
0.0
 11
9.700815397185898
 21
11.87545983926844
 31
0.0
  0
LINE
  5
26F
102
{ACAD_REACTORS
330
66C
102
}
330
207
100
AcDbEntity
  8
0
  6
Continuous
100
AcDbLine
 10
8.6047600761859
 20
8.186483461368437
 30
0.0
 11
8.6638151942859
 21
8.245538579468437
 31
0.0
  0
LINE
  5
270
330
207
100
AcDbEntity
  8
0
  6
Continuous
100
AcDbLine
 10
6.8508307393859
 20
12.03294015426844
 30
0.0
 11
7.146106329985901
 21
12.03294015426844
 31
0.0
  0
LINE
  5
271
330
207
100
AcDbEntity
  8
0
  6
Continuous
100
AcDbLine
 10
9.3563272081859
 20
12.03294015426844
 30
0.0
 11
9.6516027987859
 21
12.03294015426844
 31
0.0
  0
LINE
  5
274
330
207
100
AcDbEntity
  8
0
  6
Continuous
100
AcDbLine
 10
10.3181459029859
 20
11.76916062666844
 30
0.0
 11
10.3181459029859
 21
9.682546453468436
 31
0.0
  0
LINE
  5
275
330
207
100
AcDbEntity
  8
0
  6
Continuous
100
AcDbLine
 10
9.740185475885901
 20
8.678609445568437
 30
0.0
 11
9.779555554685899
 21
8.717979524268438
 31
0.0
  0
LINE
  5
276
330
207
100
AcDbEntity
  8
0
  6
Continuous
100
AcDbLine
 10
9.6516027987859
 20
12.03294015426844
 30
0.0
 11
9.667000622385899
 21
12.01754233056843
 31
0.0
  0
LINE
  5
277
330
207
100
AcDbEntity
  8
0
  6
Continuous
100
AcDbLine
 10
10.6134214934859
 20
9.643176374668437
 30
0.0
 11
10.6134214934859
 21
9.338058264468436
 31
0.0
  0
LINE
  5
278
102
{ACAD_REACTORS
330
652
102
}
330
207
100
AcDbEntity
  8
0
  6
Continuous
100
AcDbLine
 10
10.6134214934859
 20
9.003412595168438
 30
0.0
 11
10.6134214934859
 21
8.934514957368437
 31
0.0
  0
LINE
  5
279
330
207
100
AcDbEntity
  8
0
  6
Continuous
100
AcDbLine
 10
10.2787758241859
 20
11.80853070536843
 30
0.0
 11
10.3181459029859
 21
11.76916062666844
 31
0.0
  0
LINE
  5
283
330
207
100
AcDbEntity
  8
0
  6
Continuous
100
AcDbLine
 10
9.330647148885899
 20
14.39934445943462
 30
0.0
 11
9.4649583643859
 21
14.27675885583462
 31
0.0
  0
LINE
  5
28C
330
207
100
AcDbEntity
  8
0
  6
Continuous
100
AcDbLine
 10
9.542971642585898
 20
14.63197830853462
 30
0.0
 11
9.6772828580859
 21
14.50939270503462
 31
0.0
  0
LINE
  5
28F
330
207
100
AcDbEntity
  8
0
  6
Continuous
100
AcDbLine
 10
9.369653787985901
 20
14.57695418583462
 30
0.0
 11
9.330647148885899
 21
14.39934445943462
 31
0.0
  0
LINE
  5
291
330
207
100
AcDbEntity
  8
0
  6
Continuous
100
AcDbLine
 10
9.542971642585898
 20
14.63197830853462
 30
0.0
 11
9.369653787985901
 21
14.57695418583462
 31
0.0
  0
LINE
  5
294
330
207
100
AcDbEntity
  8
0
  6
Continuous
100
AcDbLine
 10
9.6382762188859
 20
14.33178297863462
 30
0.0
 11
9.6772828580859
 21
14.50939270503462
 31
0.0
  0
LINE
  5
295
330
207
100
AcDbEntity
  8
0
  6
Continuous
100
AcDbLine
 10
9.6382762188859
 20
14.33178297863462
 30
0.0
 11
9.4649583643859
 21
14.27675885583462
 31
0.0
  0
ARC
  5
376
330
207
100
AcDbEntity
  8
0
  6
Continuous
100
AcDbCircle
 10
9.504016940185898
 20
10.08674368666844
 30
0.0
 40
1.427819281399999
100
AcDbArc
 50
260.4750045606
 51
269.9979158727
  0
ARC
  5
377
330
207
100
AcDbEntity
  8
0
  6
Continuous
100
AcDbCircle
 10
6.998495403285899
 20
10.08648601736843
 30
0.0
 40
1.427561611399999
100
AcDbArc
 50
260.4742855393
 51
269.9989216172
  0
ARC
  5
378
330
207
100
AcDbEntity
  8
0
  6
Continuous
100
AcDbCircle
 10
6.9984695775859
 20
10.08607252856843
 30
0.0
 40
1.4271481224
100
AcDbArc
 50
260.4726763679
 51
279.5273565865
  0
ARC
  5
379
330
207
100
AcDbEntity
  8
0
  6
Continuous
100
AcDbCircle
 10
9.503973389585899
 20
10.08597262796844
 30
0.0
 40
1.427048146699999
100
AcDbArc
 50
260.4725833764
 51
279.5277296934
  0
ARC
  5
37A
102
{ACAD_REACTORS
330
652
102
}
330
207
100
AcDbEntity
  8
0
  6
Continuous
100
AcDbCircle
 10
10.4165710997859
 20
8.934514957368437
 30
0.0
 40
0.1968503937
100
AcDbArc
 50
270.0
 51
0.0
  0
ARC
  5
37B
102
{ACAD_REACTORS
330
652
102
}
330
207
100
AcDbEntity
  8
0
  6
Continuous
100
AcDbCircle
 10
6.085862438385899
 20
8.934514957368437
 30
0.0
 40
0.1968503937
100
AcDbArc
 50
180.0
 51
270.0
  0
ARC
  5
37C
102
{ACAD_REACTORS
330
686
102
}
330
207
100
AcDbEntity
  8
0
  6
Continuous
100
AcDbCircle
 10
9.5039650034859
 20
12.12152283136844
 30
0.0
 40
0.1476377953
100
AcDbArc
 50
0.0
 51
180.0
  0
ARC
  5
37D
330
207
100
AcDbEntity
  8
0
  6
Continuous
100
AcDbCircle
 10
6.998468534685899
 20
12.12152283136844
 30
0.0
 40
0.1476377953
100
AcDbArc
 50
0.0
 51
180.0
  0
ARC
  5
380
330
207
100
AcDbEntity
  8
0
  6
Continuous
100
AcDbCircle
 10
10.5740514147859
 20
9.643176374668437
 30
0.0
 40
0.0393700787
100
AcDbArc
 50
0.0
 51
90.0
  0
ARC
  5
381
330
207
100
AcDbEntity
  8
0
  6
Continuous
100
AcDbCircle
 10
5.928382123385899
 20
9.643176374668437
 30
0.0
 40
0.0393700787
100
AcDbArc
 50
90.0
 51
180.0
  0
ARC
  5
384
330
207
100
AcDbEntity
  8
0
  6
Continuous
100
AcDbCircle
 10
7.855350627385901
 20
8.629790547968436
 30
0.0
 40
0.0291338583
100
AcDbArc
 50
0.0
 51
90.0
  0
ARC
  5
385
330
207
100
AcDbEntity
  8
0
  6
Continuous
100
AcDbCircle
 10
8.647082910785899
 20
8.629790547968436
 30
0.0
 40
0.0291338583
100
AcDbArc
 50
90.0
 51
180.0
  0
CIRCLE
  5
392
330
207
100
AcDbEntity
  8
0
  6
Continuous
100
AcDbCircle
 10
9.5039650034859
 20
14.45436858223462
 30
0.0
 40
0.2952755906
  0
CIRCLE
  5
395
330
207
100
AcDbEntity
  8
0
  6
Continuous
100
AcDbCircle
 10
9.5039650034859
 20
14.45436858223462
 30
0.0
 40
0.1968503937
  0
CIRCLE
  5
396
330
207
100
AcDbEntity
  8
0
  6
Continuous
100
AcDbCircle
 10
9.5039650034859
 20
14.45436858223462
 30
0.0
 40
0.1476377953
  0
CIRCLE
  5
397
330
207
100
AcDbEntity
  8
0
  6
Continuous
100
AcDbCircle
 10
8.2512167690859
 20
15.70711681663462
 30
0.0
 40
2.3622047244
  0
CIRCLE
  5
39A
330
207
100
AcDbEntity
  8
0
  6
Continuous
100
AcDbCircle
 10
8.2512167690859
 20
15.70711681663462
 30
0.0
 40
2.066929133899999
  0
ARC
  5
39B
330
207
100
AcDbEntity
  8
0
  6
Continuous
100
AcDbCircle
 10
8.2512167690859
 20
15.70711681663462
 30
0.0
 40
2.027559055099999
100
AcDbArc
 50
319.454368632438
 51
40.54563136756208
  0
CIRCLE
  5
3A6
330
207
100
AcDbEntity
  8
0
  6
Continuous
100
AcDbCircle
 10
8.2512167690859
 20
15.70711681663462
 30
0.0
 40
0.1181102362
  0
CIRCLE
  5
3A7
330
207
100
AcDbEntity
  8
0
  6
Continuous
100
AcDbCircle
 10
8.571363540085901
 20
16.02726358763462
 30
0.0
 40
0.168503937
  0
SPLINE
  5
3F4
330
207
100
AcDbEntity
  8
0
  6
Continuous
100
AcDbSpline
210
0.0
220
0.0
230
1.0
 70
     8
 71
     3
 72
    13
 73
     9
 74
     0
 42
0.000000001
 43
0.0000000001
 40
0.0
 40
0.0
 40
0.0
 40
0.0
 40
0.2095928392
 40
0.3752257041
 40
0.4990677702000001
 40
0.6240888953
 40
0.7896814387000001
 40
1.0
 40
1.0
 40
1.0
 40
1.0
 10
9.6796114714859
 20
11.99873534506843
 30
0.0
 10
9.6773576708859
 20
12.00308935336844
 30
0.0
 10
9.672947378285901
 20
12.01071163966843
 30
0.0
 10
9.6656577696859
 20
12.01988766576844
 30
0.0
 10
9.656128721385901
 20
12.02444990316843
 30
0.0
 10
9.6465414066859
 20
12.01995890076844
 30
0.0
 10
9.6392345457859
 20
12.01073363286843
 30
0.0
 10
9.6348087465859
 20
12.00310442926844
 30
0.0
 10
9.632547142185899
 20
11.99873534506843
 30
0.0
  0
SPLINE
  5
3F5
330
207
100
AcDbEntity
  8
0
  6
Continuous
100
AcDbSpline
210
0.0
220
0.0
230
1.0
 70
     8
 71
     3
 72
    13
 73
     9
 74
     0
 42
0.000000001
 43
0.0000000001
 40
0.0
 40
0.0
 40
0.0
 40
0.0
 40
0.1724837001
 40
0.3391584565
 40
0.4999246728000001
 40
0.6612472707000001
 40
0.8269594481
 40
1.0
 40
1.0
 40
1.0
 40
1.0
 10
9.551029332685899
 20
11.99873534506843
 30
0.0
 10
9.5575774688859
 20
12.00336557646844
 30
0.0
 10
9.570959193185901
 20
12.01180378816843
 30
0.0
 10
9.5925575594859
 20
12.02082633686843
 30
0.0
 10
9.615335370085899
 20
12.02420822516844
 30
0.0
 10
9.638072652885901
 20
12.02083439596844
 30
0.0
 10
9.659671647485899
 20
12.01180165626843
 30
0.0
 10
9.6730421950859
 20
12.00338052486843
 30
0.0
 10
9.6796114714859
 20
11.99873534506843
 30
0.0
  0
SPLINE
  5
3F6
330
207
100
AcDbEntity
  8
0
  6
Continuous
100
AcDbSpline
210
0.0
220
0.0
230
1.0
 70
     8
 71
     3
 72
    13
 73
     9
 74
     0
 42
0.000000001
 43
0.0000000001
 40
0.0
 40
0.0
 40
0.0
 40
0.0
 40
0.1679635422
 40
0.3339246725
 40
0.5013663772000001
 40
0.6667760545000001
 40
0.8326820166999999
 40
1.0
 40
1.0
 40
1.0
 40
1.0
 10
9.375382864785899
 20
11.99873534506843
 30
0.0
 10
9.384525007985901
 20
12.00346766666844
 30
0.0
 10
9.403167153985899
 20
12.01203282046843
 30
0.0
 10
9.4327102108859
 20
12.02095167256844
 30
0.0
 10
9.463335977085899
 20
12.02418149116844
 30
0.0
 10
9.493941095185899
 20
12.02087491136843
 30
0.0
 10
9.5233234921859
 20
12.01200584646844
 30
0.0
 10
9.541922326785899
 20
12.00344947816843
 30
0.0
 10
9.551029332685899
 20
11.99873534506843
 30
0.0
  0
SPLINE
  5
3F7
330
207
100
AcDbEntity
  8
0
  6
Continuous
100
AcDbSpline
210
0.0
220
0.0
230
1.0
 70
     8
 71
     3
 72
    13
 73
     9
 74
     0
 42
0.000000001
 43
0.0000000001
 40
0.0
 40
0.0
 40
0.0
 40
0.0
 40
0.2095928392
 40
0.3752257041
 40
0.4990677702000001
 40
0.6240888953
 40
0.7896814387000001
 40
1.0
 40
1.0
 40
1.0
 40
1.0
 10
9.3283185354859
 20
11.99873534506843
 30
0.0
 10
9.3305723360859
 20
12.00308935336844
 30
0.0
 10
9.334982628685899
 20
12.01071163966843
 30
0.0
 10
9.342272237285898
 20
12.01988766576844
 30
0.0
 10
9.351801285485901
 20
12.02444990316843
 30
0.0
 10
9.361388600285899
 20
12.01995890076844
 30
0.0
 10
9.3686954611859
 20
12.01073363286843
 30
0.0
 10
9.373121260285898
 20
12.00310442926844
 30
0.0
 10
9.375382864785899
 20
11.99873534506843
 30
0.0
  0
SPLINE
  5
3F8
330
207
100
AcDbEntity
  8
0
  6
Continuous
100
AcDbSpline
210
0.0
220
0.0
230
1.0
 70
     8
 71
     3
 72
    13
 73
     9
 74
     0
 42
0.000000001
 43
0.0000000001
 40
0.0
 40
0.0
 40
0.0
 40
0.0
 40
0.1730405699
 40
0.3387527567
 40
0.5000753577000001
 40
0.6608415709000001
 40
0.8275163178999999
 40
1.0
 40
1.0
 40
1.0
 40
1.0
 10
9.4569006741859
 20
11.99873534506843
 30
0.0
 10
9.4503313971859
 20
12.00338052536843
 30
0.0
 10
9.436960848385901
 20
12.01180165736843
 30
0.0
 10
9.415361852285899
 20
12.02083439706844
 30
0.0
 10
9.392624568785899
 20
12.02420822516844
 30
0.0
 10
9.3698467587859
 20
12.02082633576844
 30
0.0
 10
9.348248394085899
 20
12.01180378706844
 30
0.0
 10
9.334866670985901
 20
12.00336557606844
 30
0.0
 10
9.3283185354859
 20
11.99873534506843
 30
0.0
  0
SPLINE
  5
3F9
330
207
100
AcDbEntity
  8
0
  6
Continuous
100
AcDbSpline
210
0.0
220
0.0
230
1.0
 70
     8
 71
     3
 72
    13
 73
     9
 74
     0
 42
0.000000001
 43
0.0000000001
 40
0.0
 40
0.0
 40
0.0
 40
0.0
 40
0.1679635422
 40
0.3339246725
 40
0.5013663772000001
 40
0.6667760545000001
 40
0.8326820166999999
 40
1.0
 40
1.0
 40
1.0
 40
1.0
 10
9.632547142185899
 20
11.99873534506843
 30
0.0
 10
9.6234049988859
 20
12.00346766666844
 30
0.0
 10
9.604762852985901
 20
12.01203282046843
 30
0.0
 10
9.5752197960859
 20
12.02095167256844
 30
0.0
 10
9.544594029885899
 20
12.02418149116844
 30
0.0
 10
9.513988911685899
 20
12.02087491136843
 30
0.0
 10
9.484606514785898
 20
12.01200584646844
 30
0.0
 10
9.466007680185899
 20
12.00344947816843
 30
0.0
 10
9.4569006741859
 20
11.99873534506843
 30
0.0
  0
SPLINE
  5
3FA
330
207
100
AcDbEntity
  8
0
  6
Continuous
100
AcDbSpline
210
0.0
220
0.0
230
1.0
 70
     8
 71
     3
 72
    13
 73
     9
 74
     0
 42
0.000000001
 43
0.0000000001
 40
0.0
 40
0.0
 40
0.0
 40
0.0
 40
0.1719204749
 40
0.3374639584
 40
0.4986699380000001
 40
0.6618298763000001
 40
0.8274215802
 40
1.0
 40
1.0
 40
1.0
 40
1.0
 10
9.330647148885899
 20
11.99873534506843
 30
0.0
 10
9.337519059285899
 20
12.00338725016844
 30
0.0
 10
9.351505569885899
 20
12.01183729466843
 30
0.0
 10
9.374011122985901
 20
12.02080527336844
 30
0.0
 10
9.397700300385901
 20
12.02420308956844
 30
0.0
 10
9.421414338885901
 20
12.02088201876844
 30
0.0
 10
9.444039498785899
 20
12.01186443026843
 30
0.0
 10
9.458060154985899
 20
12.00340505316843
 30
0.0
 10
9.4649583643859
 20
11.99873534506843
 30
0.0
  0
SPLINE
  5
3FB
330
207
100
AcDbEntity
  8
0
  6
Continuous
100
AcDbSpline
210
0.0
220
0.0
230
1.0
 70
     8
 71
     3
 72
    13
 73
     9
 74
     0
 42
0.000000001
 43
0.0000000001
 40
0.0
 40
0.0
 40
0.0
 40
0.0
 40
0.2181297598
 40
0.3849006958
 40
0.5000511551
 40
0.6148025911000001
 40
0.7824886415000001
 40
1.0
 40
1.0
 40
1.0
 40
1.0
 10
9.369653787985901
 20
11.99873534506843
 30
0.0
 10
9.3678005194859
 20
12.00305516326844
 30
0.0
 10
9.3641439296859
 20
12.01055068286843
 30
0.0
 10
9.3584277989859
 20
12.01961002666844
 30
0.0
 10
9.350154888385901
 20
12.02451471786843
 30
0.0
 10
9.341868350185899
 20
12.01960386786844
 30
0.0
 10
9.336150180085899
 20
12.01054537316843
 30
0.0
 10
9.3324951633859
 20
12.00304291646844
 30
0.0
 10
9.330647148885899
 20
11.99873534506843
 30
0.0
  0
SPLINE
  5
3FC
330
207
100
AcDbEntity
  8
0
  6
Continuous
100
AcDbSpline
210
0.0
220
0.0
230
1.0
 70
     8
 71
     3
 72
    13
 73
     9
 74
     0
 42
0.000000001
 43
0.0000000001
 40
0.0
 40
0.0
 40
0.0
 40
0.0
 40
0.1681503572
 40
0.3340950314
 40
0.5013647134000001
 40
0.6666055251
 40
0.8324954456
 40
1.0
 40
1.0
 40
1.0
 40
1.0
 10
9.542971642585898
 20
11.99873534506843
 30
0.0
 10
9.533955872785899
 20
12.00346495316843
 30
0.0
 10
9.5155731837859
 20
12.01202591336844
 30
0.0
 10
9.486418982185899
 20
12.02094899716844
 30
0.0
 10
9.4561844395859
 20
12.02418232166843
 30
0.0
 10
9.425970707385898
 20
12.02087225096844
 30
0.0
 10
9.396974847985902
 20
12.01199894596844
 30
0.0
 10
9.378634931585899
 20
12.00344678846844
 30
0.0
 10
9.369653787985901
 20
11.99873534506843
 30
0.0
  0
SPLINE
  5
3FD
330
207
100
AcDbEntity
  8
0
  6
Continuous
100
AcDbSpline
210
0.0
220
0.0
230
1.0
 70
     8
 71
     3
 72
    13
 73
     9
 74
     0
 42
0.000000001
 43
0.0000000001
 40
0.0
 40
0.0
 40
0.0
 40
0.0
 40
0.1719204749
 40
0.3374639584
 40
0.4986699380000001
 40
0.6618298763000001
 40
0.8274215802
 40
1.0
 40
1.0
 40
1.0
 40
1.0
 10
9.6772828580859
 20
11.99873534506843
 30
0.0
 10
9.670410947685899
 20
12.00338725016844
 30
0.0
 10
9.656424436985899
 20
12.01183729466843
 30
0.0
 10
9.6339188839859
 20
12.02080527336844
 30
0.0
 10
9.610229706585901
 20
12.02420308956844
 30
0.0
 10
9.586515668085901
 20
12.02088201876844
 30
0.0
 10
9.563890508185901
 20
12.01186443026843
 30
0.0
 10
9.549869851985899
 20
12.00340505316843
 30
0.0
 10
9.542971642585898
 20
11.99873534506843
 30
0.0
  0
SPLINE
  5
3FE
330
207
100
AcDbEntity
  8
0
  6
Continuous
100
AcDbSpline
210
0.0
220
0.0
230
1.0
 70
     8
 71
     3
 72
    13
 73
     9
 74
     0
 42
0.000000001
 43
0.0000000001
 40
0.0
 40
0.0
 40
0.0
 40
0.0
 40
0.2175113792
 40
0.3851974322
 40
0.4999488639
 40
0.6150993275
 40
0.7818702608
 40
1.0
 40
1.0
 40
1.0
 40
1.0
 10
9.6382762188859
 20
11.99873534506843
 30
0.0
 10
9.6401242335859
 20
12.00304291686844
 30
0.0
 10
9.6437792505859
 20
12.01054537386843
 30
0.0
 10
9.6494974210859
 20
12.01960386906844
 30
0.0
 10
9.657783960085899
 20
12.02451471786843
 30
0.0
 10
9.666056869785899
 20
12.01961002536843
 30
0.0
 10
9.671773000085899
 20
12.01055068206844
 30
0.0
 10
9.675429589685899
 20
12.00305516286843
 30
0.0
 10
9.6772828580859
 20
11.99873534506843
 30
0.0
  0
SPLINE
  5
3FF
330
207
100
AcDbEntity
  8
0
  6
Continuous
100
AcDbSpline
210
0.0
220
0.0
230
1.0
 70
     8
 71
     3
 72
    13
 73
     9
 74
     0
 42
0.000000001
 43
0.0000000001
 40
0.0
 40
0.0
 40
0.0
 40
0.0
 40
0.1681503572
 40
0.3340950314
 40
0.5013647134000001
 40
0.6666055251
 40
0.8324954456
 40
1.0
 40
1.0
 40
1.0
 40
1.0
 10
9.4649583643859
 20
11.99873534506843
 30
0.0
 10
9.473974134085899
 20
12.00346495316843
 30
0.0
 10
9.4923568231859
 20
12.01202591336844
 30
0.0
 10
9.521511024685899
 20
12.02094899716844
 30
0.0
 10
9.551745567385898
 20
12.02418232166843
 30
0.0
 10
9.5819592995859
 20
12.02087225096844
 30
0.0
 10
9.6109551589859
 20
12.01199894596844
 30
0.0
 10
9.629295075285899
 20
12.00344678846844
 30
0.0
 10
9.6382762188859
 20
11.99873534506843
 30
0.0
  0
SPLINE
  5
400
330
207
100
AcDbEntity
  8
0
  6
Continuous
100
AcDbSpline
210
0.0
220
0.0
230
1.0
 70
     9
 71
     3
 72
    19
 73
    15
 74
     0
 42
0.000000001
 43
0.0000000001
 40
0.0
 40
0.0
 40
0.0
 40
0.0
 40
0.1300626393
 40
0.2503108293
 40
0.3532542602
 40
0.4320483266
 40
0.4823685247
 40
0.5000000349000001
 40
0.5164462773
 40
0.5659140771
 40
0.6451589381
 40
0.7492381672000001
 40
0.8703280426999999
 40
1.0
 40
1.0
 40
1.0
 40
1.0
 10
5.8949455136859
 20
9.170735429868436
 30
0.0
 10
5.8949455136859
 20
9.156215397368436
 30
0.0
 10
5.8946941066859
 20
9.128351416768436
 30
0.0
 10
5.893603167085899
 20
9.088600929568437
 30
0.0
 10
5.8922282300859
 20
9.055855416668437
 30
0.0
 10
5.890619647085899
 20
9.027652688968437
 30
0.0
 10
5.889875340285899
 20
9.015714965368436
 30
0.0
 10
5.8887976514859
 20
9.000357733468437
 30
0.0
 10
5.8898339070859
 20
9.015137375868437
 30
0.0
 10
5.8905939513859
 20
9.027193796468438
 30
0.0
 10
5.892204439185899
 20
9.055376941868436
 30
0.0
 10
5.8936015466859
 20
9.088426004968436
 30
0.0
 10
5.8946912986859
 20
9.128340808068436
 30
0.0
 10
5.8949455136859
 20
9.156259012568437
 30
0.0
 10
5.8949455136859
 20
9.170735429868436
 30
0.0
  0
SPLINE
  5
401
330
207
100
AcDbEntity
  8
0
  6
Continuous
100
AcDbSpline
210
0.0
220
0.0
230
1.0
 70
     9
 71
     3
 72
    19
 73
    15
 74
     0
 42
0.000000001
 43
0.0000000001
 40
0.0
 40
0.0
 40
0.0
 40
0.0
 40
0.1303105444
 40
0.2510821278
 40
0.3541780312
 40
0.4333490133
 40
0.4830091320000001
 40
0.4999999948
 40
0.5171450124
 40
0.5668616869
 40
0.6461493373
 40
0.749423995
 40
0.8703816034
 40
1.0
 40
1.0
 40
1.0
 40
1.0
 10
5.8949455136859
 20
9.170735429868436
 30
0.0
 10
5.8949455136859
 20
9.185283431968437
 30
0.0
 10
5.8946918887859
 20
9.213235950268437
 30
0.0
 10
5.8935971674859
 20
9.253083128468437
 30
0.0
 10
5.8922096015859
 20
9.285968221668436
 30
0.0
 10
5.8906060599859
 20
9.314098624068437
 30
0.0
 10
5.8898486565859
 20
9.326109476468436
 30
0.0
 10
5.8887975979859
 20
9.341121929068437
 30
0.0
 10
5.8898529530859
 20
9.326043780668436
 30
0.0
 10
5.890610065585899
 20
9.314034893368436
 30
0.0
 10
5.892215755685899
 20
9.285845841768438
 30
0.0
 10
5.893603731385899
 20
9.252915050268438
 30
0.0
 10
5.894693229585899
 20
9.213102038168436
 30
0.0
 10
5.8949455136859
 20
9.185206159868437
 30
0.0
 10
5.8949455136859
 20
9.170735429868436
 30
0.0
  0
SPLINE
  5
402
330
207
100
AcDbEntity
  8
0
  6
Continuous
100
AcDbSpline
210
0.0
220
0.0
230
1.0
 70
     9
 71
     3
 72
    19
 73
    15
 74
     0
 42
0.000000001
 43
0.0000000001
 40
0.0
 40
0.0
 40
0.0
 40
0.0
 40
0.1300626393
 40
0.2503108293
 40
0.3532542602
 40
0.4320483266
 40
0.4823685247
 40
0.5000000349000001
 40
0.5164462773
 40
0.5659140771
 40
0.6451589381
 40
0.7492381672000001
 40
0.8703280426999999
 40
1.0
 40
1.0
 40
1.0
 40
1.0
 10
10.6074880244859
 20
9.170735429868436
 30
0.0
 10
10.6074880244859
 20
9.156215397368436
 30
0.0
 10
10.6077394314859
 20
9.128351416768436
 30
0.0
 10
10.6088303710859
 20
9.088600929568437
 30
0.0
 10
10.6102053080859
 20
9.055855416668437
 30
0.0
 10
10.6118138910859
 20
9.027652688968437
 30
0.0
 10
10.6125581978859
 20
9.015714965368436
 30
0.0
 10
10.6136358866859
 20
9.000357733468437
 30
0.0
 10
10.6125996310859
 20
9.015137375868437
 30
0.0
 10
10.6118395867859
 20
9.027193796468438
 30
0.0
 10
10.6102290989859
 20
9.055376941868436
 30
0.0
 10
10.6088319914859
 20
9.088426004968436
 30
0.0
 10
10.6077422394859
 20
9.128340808068436
 30
0.0
 10
10.6074880244859
 20
9.156259012568437
 30
0.0
 10
10.6074880244859
 20
9.170735429868436
 30
0.0
  0
SPLINE
  5
403
330
207
100
AcDbEntity
  8
0
  6
Continuous
100
AcDbSpline
210
0.0
220
0.0
230
1.0
 70
     9
 71
     3
 72
    19
 73
    15
 74
     0
 42
0.000000001
 43
0.0000000001
 40
0.0
 40
0.0
 40
0.0
 40
0.0
 40
0.1303105444
 40
0.2510821278
 40
0.3541780312
 40
0.4333490133
 40
0.4830091320000001
 40
0.4999999948
 40
0.5171450124
 40
0.5668616869
 40
0.6461493373
 40
0.749423995
 40
0.8703816034
 40
1.0
 40
1.0
 40
1.0
 40
1.0
 10
10.6074880244859
 20
9.170735429868436
 30
0.0
 10
10.6074880244859
 20
9.185283431968437
 30
0.0
 10
10.6077416493859
 20
9.213235950268437
 30
0.0
 10
10.6088363706859
 20
9.253083128468437
 30
0.0
 10
10.6102239365859
 20
9.285968221668436
 30
0.0
 10
10.6118274781859
 20
9.314098624068437
 30
0.0
 10
10.6125848815859
 20
9.326109476468436
 30
0.0
 10
10.6136359401859
 20
9.341121929068437
 30
0.0
 10
10.6125805850859
 20
9.326043780668436
 30
0.0
 10
10.6118234725859
 20
9.314034893368436
 30
0.0
 10
10.6102177824859
 20
9.285845841768438
 30
0.0
 10
10.6088298067859
 20
9.252915050268438
 30
0.0
 10
10.6077403085859
 20
9.213102038168436
 30
0.0
 10
10.6074880244859
 20
9.185206159868437
 30
0.0
 10
10.6074880244859
 20
9.170735429868436
 30
0.0
  0
SPLINE
  5
404
330
207
100
AcDbEntity
  8
0
  6
Continuous
100
AcDbSpline
210
0.0
220
0.0
230
1.0
 70
     8
 71
     3
 72
    13
 73
     9
 74
     0
 42
0.000000001
 43
0.0000000001
 40
0.0
 40
0.0
 40
0.0
 40
0.0
 40
0.2095928392
 40
0.3752257041
 40
0.4990677702000001
 40
0.6240888953
 40
0.7896814387000001
 40
1.0
 40
1.0
 40
1.0
 40
1.0
 10
7.174115002685899
 20
11.99873534506843
 30
0.0
 10
7.171861202085899
 20
12.00308935336844
 30
0.0
 10
7.1674509094859
 20
12.01071163966843
 30
0.0
 10
7.160161300885899
 20
12.01988766576844
 30
0.0
 10
7.1506322526859
 20
12.02444990316843
 30
0.0
 10
7.141044937885899
 20
12.01995890076844
 30
0.0
 10
7.133738076985899
 20
12.01073363286843
 30
0.0
 10
7.129312277885899
 20
12.00310442926844
 30
0.0
 10
7.1270506733859
 20
11.99873534506843
 30
0.0
  0
SPLINE
  5
405
330
207
100
AcDbEntity
  8
0
  6
Continuous
100
AcDbSpline
210
0.0
220
0.0
230
1.0
 70
     8
 71
     3
 72
    13
 73
     9
 74
     0
 42
0.000000001
 43
0.0000000001
 40
0.0
 40
0.0
 40
0.0
 40
0.0
 40
0.1724837001
 40
0.3391584565
 40
0.4999246728000001
 40
0.6612472707000001
 40
0.8269594481
 40
1.0
 40
1.0
 40
1.0
 40
1.0
 10
7.045532863985899
 20
11.99873534506843
 30
0.0
 10
7.0520810000859
 20
12.00336557646844
 30
0.0
 10
7.0654627243859
 20
12.01180378816843
 30
0.0
 10
7.087061090685899
 20
12.02082633686843
 30
0.0
 10
7.1098389013859
 20
12.02420822516844
 30
0.0
 10
7.1325761840859
 20
12.02083439596844
 30
0.0
 10
7.1541751786859
 20
12.01180165626843
 30
0.0
 10
7.167545726285901
 20
12.00338052486843
 30
0.0
 10
7.174115002685899
 20
11.99873534506843
 30
0.0
  0
SPLINE
  5
406
330
207
100
AcDbEntity
  8
0
  6
Continuous
100
AcDbSpline
210
0.0
220
0.0
230
1.0
 70
     8
 71
     3
 72
    13
 73
     9
 74
     0
 42
0.000000001
 43
0.0000000001
 40
0.0
 40
0.0
 40
0.0
 40
0.0
 40
0.1679635422
 40
0.3339246725
 40
0.5013663772000001
 40
0.6667760545000001
 40
0.8326820166999999
 40
1.0
 40
1.0
 40
1.0
 40
1.0
 10
6.869886395985901
 20
11.99873534506843
 30
0.0
 10
6.879028539285899
 20
12.00346766666844
 30
0.0
 10
6.8976706851859
 20
12.01203282046843
 30
0.0
 10
6.9272137420859
 20
12.02095167256844
 30
0.0
 10
6.9578395082859
 20
12.02418149116844
 30
0.0
 10
6.9884446264859
 20
12.02087491136843
 30
0.0
 10
7.017827023385899
 20
12.01200584646844
 30
0.0
 10
7.0364258579859
 20
12.00344947816843
 30
0.0
 10
7.045532863985899
 20
11.99873534506843
 30
0.0
  0
SPLINE
  5
407
330
207
100
AcDbEntity
  8
0
  6
Continuous
100
AcDbSpline
210
0.0
220
0.0
230
1.0
 70
     8
 71
     3
 72
    13
 73
     9
 74
     0
 42
0.000000001
 43
0.0000000001
 40
0.0
 40
0.0
 40
0.0
 40
0.0
 40
0.2095928392
 40
0.3752257041
 40
0.4990677702000001
 40
0.6240888953
 40
0.7896814387000001
 40
1.0
 40
1.0
 40
1.0
 40
1.0
 10
6.822822066685899
 20
11.99873534506843
 30
0.0
 10
6.825075867285899
 20
12.00308935336844
 30
0.0
 10
6.829486159885901
 20
12.01071163966843
 30
0.0
 10
6.8367757684859
 20
12.01988766576844
 30
0.0
 10
6.846304816785899
 20
12.02444990316843
 30
0.0
 10
6.8558921314859
 20
12.01995890076844
 30
0.0
 10
6.8631989923859
 20
12.01073363286843
 30
0.0
 10
6.8676247915859
 20
12.00310442926844
 30
0.0
 10
6.869886395985901
 20
11.99873534506843
 30
0.0
  0
SPLINE
  5
408
330
207
100
AcDbEntity
  8
0
  6
Continuous
100
AcDbSpline
210
0.0
220
0.0
230
1.0
 70
     8
 71
     3
 72
    13
 73
     9
 74
     0
 42
0.000000001
 43
0.0000000001
 40
0.0
 40
0.0
 40
0.0
 40
0.0
 40
0.1730405699
 40
0.3387527567
 40
0.5000753577000001
 40
0.6608415709000001
 40
0.8275163178999999
 40
1.0
 40
1.0
 40
1.0
 40
1.0
 10
6.9514042054859
 20
11.99873534506843
 30
0.0
 10
6.944834928385899
 20
12.00338052536843
 30
0.0
 10
6.931464379685898
 20
12.01180165736843
 30
0.0
 10
6.9098653834859
 20
12.02083439706844
 30
0.0
 10
6.887128100085901
 20
12.02420822516844
 30
0.0
 10
6.8643502899859
 20
12.02082633576844
 30
0.0
 10
6.842751925385899
 20
12.01180378706844
 30
0.0
 10
6.829370202185899
 20
12.00336557606844
 30
0.0
 10
6.822822066685899
 20
11.99873534506843
 30
0.0
  0
SPLINE
  5
409
330
207
100
AcDbEntity
  8
0
  6
Continuous
100
AcDbSpline
210
0.0
220
0.0
230
1.0
 70
     8
 71
     3
 72
    13
 73
     9
 74
     0
 42
0.000000001
 43
0.0000000001
 40
0.0
 40
0.0
 40
0.0
 40
0.0
 40
0.1679635422
 40
0.3339246725
 40
0.5013663772000001
 40
0.6667760545000001
 40
0.8326820166999999
 40
1.0
 40
1.0
 40
1.0
 40
1.0
 10
7.1270506733859
 20
11.99873534506843
 30
0.0
 10
7.1179085301859
 20
12.00346766666844
 30
0.0
 10
7.0992663841859
 20
12.01203282046843
 30
0.0
 10
7.069723327285901
 20
12.02095167256844
 30
0.0
 10
7.039097561085901
 20
12.02418149116844
 30
0.0
 10
7.0084924429859
 20
12.02087491136843
 30
0.0
 10
6.979110045985899
 20
12.01200584646844
 30
0.0
 10
6.960511211385901
 20
12.00344947816843
 30
0.0
 10
6.9514042054859
 20
11.99873534506843
 30
0.0
  0
LINE
  5
506
330
207
100
AcDbEntity
  8
CENTER
100
AcDbLine
 10
8.2512167690859
 20
8.061483461368439
 30
0.0
 11
8.2512167690859
 21
12.39416062666844
 31
0.0
  0
LINE
  5
5B1
330
207
100
AcDbEntity
  8
0
  6
Continuous
100
AcDbLine
 10
7.1717863892859
 20
14.39934445943462
 30
0.0
 11
7.0374751737859
 21
14.27675885583462
 31
0.0
  0
LINE
  5
5B2
330
207
100
AcDbEntity
  8
0
  6
Continuous
100
AcDbLine
 10
6.959461895585901
 20
14.63197830853462
 30
0.0
 11
6.825150680085899
 21
14.50939270503462
 31
0.0
  0
LINE
  5
5B3
330
207
100
AcDbEntity
  8
0
  6
Continuous
100
AcDbLine
 10
7.132779750185898
 20
14.57695418583462
 30
0.0
 11
7.1717863892859
 21
14.39934445943462
 31
0.0
  0
LINE
  5
5B4
330
207
100
AcDbEntity
  8
0
  6
Continuous
100
AcDbLine
 10
6.959461895585901
 20
14.63197830853462
 30
0.0
 11
7.132779750185898
 21
14.57695418583462
 31
0.0
  0
LINE
  5
5B5
330
207
100
AcDbEntity
  8
0
  6
Continuous
100
AcDbLine
 10
6.864157319285899
 20
14.33178297863462
 30
0.0
 11
6.825150680085899
 21
14.50939270503462
 31
0.0
  0
LINE
  5
5B6
330
207
100
AcDbEntity
  8
0
  6
Continuous
100
AcDbLine
 10
6.864157319285899
 20
14.33178297863462
 30
0.0
 11
7.0374751737859
 21
14.27675885583462
 31
0.0
  0
CIRCLE
  5
5B7
330
207
100
AcDbEntity
  8
0
  6
Continuous
100
AcDbCircle
 10
6.998468534685899
 20
14.45436858223462
 30
0.0
 40
0.2952755906
  0
CIRCLE
  5
5B8
330
207
100
AcDbEntity
  8
0
  6
Continuous
100
AcDbCircle
 10
6.998468534685899
 20
14.45436858223462
 30
0.0
 40
0.1968503937
  0
CIRCLE
  5
5B9
330
207
100
AcDbEntity
  8
0
  6
Continuous
100
AcDbCircle
 10
6.998468534685899
 20
14.45436858223462
 30
0.0
 40
0.1476377953
  0
ARC
  5
5BA
330
207
100
AcDbEntity
  8
0
  6
Continuous
100
AcDbCircle
 10
8.2512167690859
 20
15.70711681663462
 30
0.0
 40
2.027559055099999
100
AcDbArc
 50
229.4543686324378
 51
310.5456313675622
  0
LINE
  5
5BB
330
207
100
AcDbEntity
  8
0
  6
Continuous
100
AcDbLine
 10
9.330647148885899
 20
17.01488917383462
 30
0.0
 11
9.4649583643859
 21
17.13747477743462
 31
0.0
  0
LINE
  5
5BC
330
207
100
AcDbEntity
  8
0
  6
Continuous
100
AcDbLine
 10
9.542971642585898
 20
16.78225532473462
 30
0.0
 11
9.6772828580859
 21
16.90484092823462
 31
0.0
  0
LINE
  5
5BD
330
207
100
AcDbEntity
  8
0
  6
Continuous
100
AcDbLine
 10
9.369653787985901
 20
16.83727944743462
 30
0.0
 11
9.330647148885899
 21
17.01488917383462
 31
0.0
  0
LINE
  5
5BE
330
207
100
AcDbEntity
  8
0
  6
Continuous
100
AcDbLine
 10
9.542971642585898
 20
16.78225532473462
 30
0.0
 11
9.369653787985901
 21
16.83727944743462
 31
0.0
  0
LINE
  5
5BF
330
207
100
AcDbEntity
  8
0
  6
Continuous
100
AcDbLine
 10
9.6382762188859
 20
17.08245065463462
 30
0.0
 11
9.6772828580859
 21
16.90484092823462
 31
0.0
  0
LINE
  5
5C0
330
207
100
AcDbEntity
  8
0
  6
Continuous
100
AcDbLine
 10
9.6382762188859
 20
17.08245065463462
 30
0.0
 11
9.4649583643859
 21
17.13747477743462
 31
0.0
  0
CIRCLE
  5
5C1
330
207
100
AcDbEntity
  8
0
  6
Continuous
100
AcDbCircle
 10
9.5039650034859
 20
16.95986505103462
 30
0.0
 40
0.2952755906
  0
CIRCLE
  5
5C2
330
207
100
AcDbEntity
  8
0
  6
Continuous
100
AcDbCircle
 10
9.5039650034859
 20
16.95986505103462
 30
0.0
 40
0.1968503937
  0
CIRCLE
  5
5C3
330
207
100
AcDbEntity
  8
0
  6
Continuous
100
AcDbCircle
 10
9.5039650034859
 20
16.95986505103462
 30
0.0
 40
0.1476377953
  0
LINE
  5
5C4
330
207
100
AcDbEntity
  8
0
  6
Continuous
100
AcDbLine
 10
7.1717863892859
 20
17.01488917383462
 30
0.0
 11
7.0374751737859
 21
17.13747477743462
 31
0.0
  0
LINE
  5
5C5
330
207
100
AcDbEntity
  8
0
  6
Continuous
100
AcDbLine
 10
6.959461895585901
 20
16.78225532473462
 30
0.0
 11
6.825150680085899
 21
16.90484092823462
 31
0.0
  0
LINE
  5
5C6
330
207
100
AcDbEntity
  8
0
  6
Continuous
100
AcDbLine
 10
7.132779750185898
 20
16.83727944743462
 30
0.0
 11
7.1717863892859
 21
17.01488917383462
 31
0.0
  0
LINE
  5
5C7
330
207
100
AcDbEntity
  8
0
  6
Continuous
100
AcDbLine
 10
6.959461895585901
 20
16.78225532473462
 30
0.0
 11
7.132779750185898
 21
16.83727944743462
 31
0.0
  0
LINE
  5
5C8
330
207
100
AcDbEntity
  8
0
  6
Continuous
100
AcDbLine
 10
6.864157319285899
 20
17.08245065463462
 30
0.0
 11
6.825150680085899
 21
16.90484092823462
 31
0.0
  0
LINE
  5
5C9
330
207
100
AcDbEntity
  8
0
  6
Continuous
100
AcDbLine
 10
6.864157319285899
 20
17.08245065463462
 30
0.0
 11
7.0374751737859
 21
17.13747477743462
 31
0.0
  0
CIRCLE
  5
5CA
330
207
100
AcDbEntity
  8
0
  6
Continuous
100
AcDbCircle
 10
6.998468534685899
 20
16.95986505103462
 30
0.0
 40
0.2952755906
  0
CIRCLE
  5
5CB
330
207
100
AcDbEntity
  8
0
  6
Continuous
100
AcDbCircle
 10
6.998468534685899
 20
16.95986505103462
 30
0.0
 40
0.1968503937
  0
CIRCLE
  5
5CC
330
207
100
AcDbEntity
  8
0
  6
Continuous
100
AcDbCircle
 10
6.998468534685899
 20
16.95986505103462
 30
0.0
 40
0.1476377953
  0
LINE
  5
5DB
102
{ACAD_REACTORS
330
6BA
102
}
330
207
100
AcDbEntity
  8
CENTER
100
AcDbLine
 10
10.7384214934859
 20
15.70711681663462
 30
0.0
 11
5.7640120446859
 21
15.70711681663462
 31
0.0
  0
LINE
  5
5DC
102
{ACAD_REACTORS
330
6A0
102
}
330
207
100
AcDbEntity
  8
CENTER
100
AcDbLine
 10
8.2512167690859
 20
18.19432154103462
 30
0.0
 11
8.2512167690859
 21
13.21991209223462
 31
0.0
  0
LINE
  5
5DE
102
{ACAD_REACTORS
330
6BA
102
}
330
207
100
AcDbEntity
  8
CENTER
100
AcDbLine
 10
8.864867477085901
 20
16.02726358763462
 30
0.0
 11
8.2778596030859
 21
16.02726358763462
 31
0.0
  0
LINE
  5
5DF
102
{ACAD_REACTORS
330
6A0
102
}
330
207
100
AcDbEntity
  8
CENTER
100
AcDbLine
 10
8.571363540085901
 20
16.32076752463462
 30
0.0
 11
8.571363540085901
 21
15.73375965063462
 31
0.0
  0
ARC
  5
5E0
330
207
100
AcDbEntity
  8
0
  6
Continuous
100
AcDbCircle
 10
8.2512167690859
 20
15.70711681663462
 30
0.0
 40
2.027559055099999
100
AcDbArc
 50
139.4543686324379
 51
220.5456313675621
  0
ARC
  5
5E1
330
207
100
AcDbEntity
  8
0
  6
Continuous
100
AcDbCircle
 10
8.2512167690859
 20
15.70711681663462
 30
0.0
 40
2.027559055099999
100
AcDbArc
 50
49.45436863243782
 51
130.5456313675622
  0
DIMENSION
  5
638
102
{ACAD_XDICTIONARY
360
647
102
}
102
{ACAD_REACTORS
330
652
102
}
330
207
100
AcDbEntity
  8
DIMS
100
AcDbDimension
280
     0
  2
*D0
 10
10.6134214934859
 20
6.883615801410186
 30
0.0
 11
8.242770030646539
 21
6.883615801410186
 31
0.0
 70
   160
  1
ØA
 71
     5
 42
4.724409448800002
 73
     0
 74
     0
 75
     0
  3
3PL
100
AcDbAlignedDimension
 13
5.889012044685899
 23
8.934514957368437
 33
0.0
 14
10.6134214934859
 24
8.934514957368437
 34
0.0
100
AcDbRotatedDimension
  0
DIMENSION
  5
653
102
{ACAD_XDICTIONARY
360
661
102
}
102
{ACAD_REACTORS
330
66C
102
}
330
207
100
AcDbEntity
  8
DIMS
100
AcDbDimension
280
     0
  2
*D1
 10
11.33676082269433
 20
8.737664563668436
 30
0.0
 11
11.33676082269433
 21
8.462074012518439
 31
0.0
 70
   160
  1
B
 71
     5
 42
0.5511811022999993
 73
     0
 74
     0
 75
     0
  3
3PL
100
AcDbAlignedDimension
 13
8.6047600761859
 23
8.186483461368437
 33
0.0
 14
10.4165710997859
 24
8.737664563668436
 34
0.0
 50
90.0
100
AcDbRotatedDimension
  0
DIMENSION
  5
66D
102
{ACAD_XDICTIONARY
360
67B
102
}
102
{ACAD_REACTORS
330
686
102
}
330
207
100
AcDbEntity
  8
DIMS
100
AcDbDimension
280
     0
  2
*D2
 10
12.01291308490963
 20
12.26916062666843
 30
0.0
 11
12.01291308490963
 21
10.83804292586741
 31
0.0
 70
   160
  1
C
 71
     5
 42
4.082677165299999
 73
     0
 74
     0
 75
     0
  3
3PL
100
AcDbAlignedDimension
 13
8.6047600761859
 23
8.186483461368437
 33
0.0
 14
9.5039650034859
 24
12.26916062666844
 34
0.0
 50
90.0
100
AcDbRotatedDimension
  0
DIMENSION
  5
687
102
{ACAD_XDICTIONARY
360
695
102
}
102
{ACAD_REACTORS
330
6A0
102
}
330
207
100
AcDbEntity
  8
DIMS
100
AcDbDimension
280
     0
  2
*D3
 10
8.571363540085901
 20
12.88077438515912
 30
0.0
 11
9.640087960276895
 21
12.88077438515912
 31
0.0
 70
   160
  1
D
 71
     5
 42
0.320146771000001
 73
     0
 74
     0
 75
     0
  3
3PL
100
AcDbAlignedDimension
 13
8.2512167690859
 23
13.21991209223462
 33
0.0
 14
8.571363540085901
 24
15.73375965063462
 34
0.0
100
AcDbRotatedDimension
  0
DIMENSION
  5
6A1
102
{ACAD_XDICTIONARY
360
6AF
102
}
102
{ACAD_REACTORS
330
6BA
102
}
330
207
100
AcDbEntity
  8
DIMS
100
AcDbDimension
280
     0
  2
*D4
 10
11.16840755836622
 20
16.02726358763462
 30
0.0
 11
11.80134070979869
 21
16.77726358763462
 31
0.0
 70
   160
  1
E
 71
     5
 42
0.3201467710000028
 73
     0
 74
     0
 75
     0
  3
3PL
100
AcDbAlignedDimension
 13
10.7384214934859
 23
15.70711681663462
 33
0.0
 14
8.864867477085901
 24
16.02726358763462
 34
0.0
 50
90.0
100
AcDbRotatedDimension
  0
SOLID
  5
716
330
207
100
AcDbEntity
  8
DIMS
100
AcDbTrace
 10
7.908562784071314
 20
8.021803479119155
 30
0.0
 11
7.980494345071871
 21
7.919574077614386
 31
0.0
 12
8.2512167690859
 22
8.186483461368437
 32
0.0
 13
8.2512167690859
 23
8.186483461368437
 33
0.0
  0
LINE
  5
717
330
207
100
AcDbEntity
  8
DIMS
100
AcDbLine
 10
7.944528564571591
 20
7.970688778366772
 30
0.0
 11
7.575783139490491
 21
7.711228841719685
 31
0.0
  0
LINE
  5
718
330
207
100
AcDbEntity
  8
DIMS
100
AcDbLine
 10
7.575783139490493
 20
7.711228841719686
 30
0.0
 11
7.200783139490493
 21
7.711228841719686
 31
0.0
  0
SOLID
  5
71D
330
207
100
AcDbEntity
  8
DIMS
100
AcDbTrace
 10
7.817005368235021
 20
15.48117583453281
 30
0.0
 11
7.881397071503302
 21
15.37403709947303
 31
0.0
 12
8.170617425048499
 22
15.62078157680776
 32
0.0
 13
8.170617425048499
 23
15.62078157680776
 33
0.0
  0
LINE
  5
71E
330
207
100
AcDbEntity
  8
DIMS
100
AcDbLine
 10
8.009909322458829
 20
15.52419402190534
 30
0.0
 11
5.960968447570067
 21
14.29275524529038
 31
0.0
  0
LINE
  5
71F
330
207
100
AcDbEntity
  8
DIMS
100
AcDbLine
 10
5.960968447570067
 20
14.29275524529038
 30
0.0
 11
5.679718447570067
 21
14.29275524529038
 31
0.0
  0
SOLID
  5
721
330
207
100
AcDbEntity
  8
DIMS
100
AcDbTrace
 10
9.025813495225252
 20
16.33149647742213
 30
0.0
 11
8.945160654158827
 21
16.42699579274906
 31
0.0
 12
8.698989128711231
 22
16.13728761188632
 32
0.0
 13
8.698989128711231
 23
16.13728761188632
 33
0.0
  0
LINE
  5
722
330
207
100
AcDbEntity
  8
DIMS
100
AcDbLine
 10
8.842238101701639
 20
16.25826687348595
 30
0.0
 11
10.63372928605866
 21
17.77125001131475
 31
0.0
  0
LINE
  5
723
330
207
100
AcDbEntity
  8
DIMS
100
AcDbLine
 10
10.63372928605867
 20
17.77125001131475
 30
0.0
 11
10.91497928605867
 21
17.77125001131475
 31
0.0
  0
TEXT
  5
75F
330
207
100
AcDbEntity
  8
DIMS
100
AcDbText
 10
5.975608307348856
 20
7.584097190969345
 30
0.0
 40
0.25
  1
1/2" NPT
  7
ARIAL_NARROW_BOLD
100
AcDbText
  0
TEXT
  5
762
330
207
100
AcDbEntity
  8
DIMS
100
AcDbText
 10
4.222560900136414
 20
14.2008029861925
 30
0.0
 40
0.25
  1
EXHAUST
  7
ARIAL_NARROW_BOLD
100
AcDbText
  0
INSERT
  5
9AA
330
207
100
AcDbEntity
  8
0
100
AcDbBlockReference
 66
     1
  2
Wilden_C_size_03-01-12
 10
1.836802046467951
 20
4.232005863687334
 30
0.0
  0
ATTRIB
  5
9AB
330
9AA
100
AcDbEntity
  8
ATTRIBUTES
100
AcDbText
 10
18.24492493279491
 20
5.332022947917787
 30
0.0
 40
0.1
  1
-
  7
ROMANS
100
AcDbAttribute
280
     0
  2
.01
 70
     0
280
     0
  0
ATTRIB
  5
9AD
330
9AA
100
AcDbEntity
  8
ATTRIBUTES
100
AcDbText
 10
18.24177363340212
 20
5.080225529285506
 30
0.0
 40
0.1
  1
-
  7
ROMANS
100
AcDbAttribute
280
     0
  2
.005
 70
     0
280
     0
  0
ATTRIB
  5
9AE
330
9AA
100
AcDbEntity
  8
ATTRIBUTES
100
AcDbText
 10
18.26257220939457
 20
4.831536720759797
 30
0.0
 40
0.1
  1
-
  7
ROMANS
100
AcDbAttribute
280
     0
  2
1/2%%D
 70
     0
280
     0
  0
ATTRIB
  5
9AF
330
9AA
100
AcDbEntity
  8
ATTRIBUTES
100
AcDbText
 10
20.46698061509899
 20
5.672034622443242
 30
0.0
 40
0.18
  1
SURGE DAMPENER
  7
ROMANS
 72
     4
 11
21.70555204367042
 21
5.762034622443242
 31
0.0
100
AcDbAttribute
280
     0
  2
PART_DESCIPTION
 70
     0
280
     0
  0
ATTRIB
  5
9B0
330
9AA
100
AcDbEntity
  8
ATTRIBUTES
100
AcDbText
 10
21.23412347224185
 20
5.357005865545211
 30
0.0
 40
0.18
  1
ISD100
  7
ROMANS
 72
     4
 11
21.70555204367042
 21
5.447005865545211
 31
0.0
100
AcDbAttribute
280
     0
  2
PUMP_MODEL
 70
     0
280
     0
  0
ATTRIB
  5
9B1
330
9AA
100
AcDbEntity
  8
ATTRIBUTES
100
AcDbText
 10
22.72358804817057
 20
4.597095457920195
 30
0.0
 40
0.1875
  1
LW0486
  7
ROMANS
100
AcDbAttribute
280
     0
  2
DWG_NO
 70
     0
280
     0
  0
ATTRIB
  5
9B2
330
9AA
100
AcDbEntity
  8
ATTRIBUTES
100
AcDbText
 10
24.09511558122269
 20
4.597095457920195
 30
0.0
 40
0.1875
  1
A
 41
1.995192725918025
  7
ROMANS
 72
     5
 11
24.39795733426382
 21
4.597095457920195
 31
0.0
100
AcDbAttribute
280
     0
  2
REV
 70
     0
280
     0
  0
ATTRIB
  5
9B3
330
9AA
100
AcDbEntity
  8
ATTRIBUTES
100
AcDbText
 10
18.26606299238197
 20
4.581052492079778
 30
0.0
 40
0.1
  1
1 OF 1
  7
ROMANS
100
AcDbAttribute
280
     0
  2
SHT_NO
 70
     0
280
     0
  0
ATTRIB
  5
9B4
330
9AA
100
AcDbEntity
  8
ATTRIBUTES
100
AcDbText
 10
17.09952785929187
 20
4.581099825522079
 30
0.0
 40
0.1
  1
1/1
  7
ROMANS
100
AcDbAttribute
280
     0
  2
SCALE
 70
     0
280
     0
  0
ATTRIB
  5
9B5
330
9AA
100
AcDbEntity
  8
ATTRIBUTES
100
AcDbText
 10
19.62635238771518
 20
5.077758144727287
 30
0.0
 40
0.1
  1
N. HALE
  7
ROMANS
100
AcDbAttribute
280
     0
  2
DRAWN_BY
 70
     0
280
     0
  0
ATTRIB
  5
9B6
330
9AA
100
AcDbEntity
  8
ATTRIBUTES
100
AcDbText
 10
21.54578596721966
 20
5.078110152416863
 30
0.0
 40
0.1
  1
05/01/19
  7
ROMANS
100
AcDbAttribute
280
     0
  2
DRWN_DATE
 70
     0
280
     0
  0
ATTRIB
  5
9B7
330
9AA
100
AcDbEntity
  8
ATTRIBUTES
100
AcDbText
 10
21.54578596721966
 20
4.828110152416863
 30
0.0
 40
0.1
  1
05 03 19
  7
ROMANS
100
AcDbAttribute
280
     0
  2
CHKD_DATE
 70
     0
280
     0
  0
ATTRIB
  5
9B8
330
9AA
100
AcDbEntity
  8
ATTRIBUTES
100
AcDbText
 10
19.62635238771518
 20
4.827758144727287
 30
0.0
 40
0.1
  1
Leonard Galvan
  7
ROMANS
100
AcDbAttribute
280
     0
  2
CHKD_BY
 70
     0
280
     0
  0
ATTRIB
  5
9B9
330
9AA
100
AcDbEntity
  8
ATTRIBUTES
100
AcDbText
 10
21.54578596721966
 20
4.578110152416863
 30
0.0
 40
0.1
  1
5/3/19
  7
ROMANS
100
AcDbAttribute
280
     0
  2
APVD_DATE
 70
     0
280
     0
  0
ATTRIB
  5
9BA
330
9AA
100
AcDbEntity
  8
ATTRIBUTES
100
AcDbText
 10
19.62635238771518
 20
4.577758144727287
 30
0.0
 40
0.1
  1
Emmanuel Marquez
  7
ROMANS
100
AcDbAttribute
280
     0
  2
APVD_BY
 70
     0
280
     0
  0
ATTRIB
  5
9BB
330
9AA
100
AcDbEntity
  8
ATTRIBUTES
100
AcDbText
 10
23.04834260278803
 20
5.060955180981744
 30
0.0
 40
0.1
  1
.
  7
ROMANS
100
AcDbAttribute
280
     0
  2
ASSY_NO
 70
     0
280
     0
  0
SEQEND
  5
9BC
330
9AA
100
AcDbEntity
  8
0
  0
LINE
  5
9D4
330
207
100
AcDbEntity
  8
BORDER2
 62
     5
100
AcDbLine
 39
0.03
 10
18.44930204367042
 20
21.0575058655452
 30
0.0
 11
18.44930204367042
 21
20.65750586554521
 31
0.0
  0
LINE
  5
9D5
330
207
100
AcDbEntity
  8
BORDER2
 62
     5
100
AcDbLine
 10
18.82430204367042
 20
21.0575058655452
 30
0.0
 11
18.82430204367042
 21
20.65750586554521
 31
0.0
  0
TEXT
  5
9D6
330
207
100
AcDbEntity
  8
BORDER2
 62
     2
100
AcDbText
 10
18.56253790789422
 20
20.89274202653979
 30
0.0
 40
0.1
  1
A   RELEASED INTO PRODUCTION
 41
1.199999999999999
  7
ROMANS
100
AcDbText
  0
TEXT
  5
9D7
330
207
100
AcDbEntity
  8
BORDER2
 62
     2
100
AcDbText
 10
22.62481716364358
 20
20.79620013331693
 30
0.0
 40
0.1
  1
-
 41
1.199999999999999
  7
ROMANS
100
AcDbText
  0
LINE
  5
9D8
330
207
100
AcDbEntity
  8
BORDER2
 62
     5
100
AcDbLine
 10
23.44930204367042
 20
21.0575058655452
 30
0.0
 11
23.44930204367042
 21
20.65750586554521
 31
0.0
  0
LINE
  5
9D9
330
207
100
AcDbEntity
  8
BORDER2
 62
     5
100
AcDbLine
 10
22.94930204367042
 20
21.0575058655452
 30
0.0
 11
22.94930204367043
 21
20.65750586554521
 31
0.0
  0
LINE
  5
9DA
330
207
100
AcDbEntity
  8
BORDER2
 62
     5
100
AcDbLine
 10
22.44930204367042
 20
21.0575058655452
 30
0.0
 11
22.44930204367042
 21
20.65750586554521
 31
0.0
  0
LINE
  5
9DB
330
207
100
AcDbEntity
  8
BORDER2
 62
     5
100
AcDbLine
 10
18.44930204367042
 20
20.65750586554521
 30
0.0
 11
24.44930204367042
 21
20.65750586554521
 31
0.0
  0
TEXT
  5
9DC
330
207
100
AcDbEntity
  8
BORDER2
 62
     2
100
AcDbText
 10
19.03311484679765
 20
20.71254926516907
 30
0.0
 40
0.1
  1
SEE ECN #06326
 41
1.199999999999999
  7
ROMANS
100
AcDbText
  0
LINE
  5
9DD
330
207
100
AcDbEntity
  8
BORDER2
 62
     5
100
AcDbLine
 10
23.94930204367042
 20
21.0575058655452
 30
0.0
 11
23.94930204367042
 21
20.65750586554521
 31
0.0
  0
TEXT
  5
9DE
330
207
100
AcDbEntity
  8
BORDER2
 62
     2
100
AcDbText
 10
23.12481716364358
 20
20.79620013331693
 30
0.0
 40
0.1
  1
-
 41
1.199999999999999
  7
ROMANS
100
AcDbText
  0
TEXT
  5
9DF
330
207
100
AcDbEntity
  8
BORDER2
 62
     2
100
AcDbText
 10
23.62481716364358
 20
20.79620013331693
 30
0.0
 40
0.1
  1
-
 41
1.199999999999999
  7
ROMANS
100
AcDbText
  0
TEXT
  5
9E0
330
207
100
AcDbEntity
  8
BORDER2
 62
     2
100
AcDbText
 10
24.12481716364358
 20
20.79620013331693
 30
0.0
 40
0.1
  1
-
 41
1.199999999999999
  7
ROMANS
100
AcDbText
  0
INSERT
  5
9F2
330
207
100
AcDbEntity
  8
0
100
AcDbBlockReference
  2
NOTES_1994
 10
2.149302043670417
 20
21.35750586554521
 30
0.0
  0
TEXT
  5
9FD
330
207
100
AcDbEntity
  8
DIMS
100
AcDbText
 10
11.03143524815108
 20
17.69479921053241
 30
0.0
 40
0.25
  1
1/8" FNPT
  7
ARIAL_NARROW_BOLD
100
AcDbText
  0
TEXT
  5
9FE
330
207
100
AcDbEntity
  8
DIMS
100
AcDbText
 10
11.03143524815108
 20
17.34052367986134
 30
0.0
 40
0.25
  1
AIR INLET
  7
ARIAL_NARROW_BOLD
100
AcDbText
  0
LINE
  5
A67
330
207
100
AcDbEntity
  8
0
100
AcDbLine
 10
16.41758526105627
 20
11.8263551855332
 30
0.0
 11
16.41758526105627
 21
14.63359275514627
 31
0.0
  0
LINE
  5
A68
330
207
100
AcDbEntity
  8
0
100
AcDbLine
 10
14.91370799162068
 20
11.8263551855332
 30
0.0
 11
14.91370799162068
 21
15.2351436629205
 31
0.0
  0
LINE
  5
A69
330
207
100
AcDbEntity
  8
0
100
AcDbLine
 10
19.92663222307259
 20
11.8263551855332
 30
0.0
 11
19.9266322230726
 21
14.63359275514627
 31
0.0
  0
LINE
  5
A6A
330
207
100
AcDbEntity
  8
0
100
AcDbLine
 10
23.43567918508895
 20
11.8263551855332
 30
0.0
 11
23.43567918508896
 21
15.2351436629205
 31
0.0
  0
TEXT
  5
A6B
330
207
100
AcDbEntity
  8
0
100
AcDbText
 10
17.00585301803944
 20
14.21563756842958
 30
0.0
 40
0.2506462115725954
  1
METRIC (mm)
  7
narrow_arial_bold
100
AcDbText
  0
LINE
  5
A6C
330
207
100
AcDbEntity
  8
0
100
AcDbLine
 10
14.91370799162068
 20
13.14976718263651
 30
0.0
 11
23.43567918508896
 21
13.14976718263651
 31
0.0
  0
LINE
  5
A6D
330
207
100
AcDbEntity
  8
0
100
AcDbLine
 10
14.91370799162068
 20
13.59090451500427
 30
0.0
 11
23.43567918508896
 21
13.59090451500427
 31
0.0
  0
LINE
  5
A6E
330
207
100
AcDbEntity
  8
0
100
AcDbLine
 10
14.91370799162068
 20
14.03204184737204
 30
0.0
 11
23.43567918508896
 21
14.03204184737204
 31
0.0
  0
LINE
  5
A78
330
207
100
AcDbEntity
  8
0
100
AcDbLine
 10
14.91370799162068
 20
11.8263551855332
 30
0.0
 11
23.43567918508896
 21
11.8263551855332
 31
0.0
  0
LINE
  5
A79
330
207
100
AcDbEntity
  8
0
100
AcDbLine
 10
14.91370799162068
 20
12.26749251790097
 30
0.0
 11
23.43567918508896
 21
12.26749251790097
 31
0.0
  0
LINE
  5
A7A
330
207
100
AcDbEntity
  8
0
100
AcDbLine
 10
14.91370799162068
 20
12.70862985026873
 30
0.0
 11
23.43567918508896
 21
12.70862985026873
 31
0.0
  0
TEXT
  5
A88
330
207
100
AcDbEntity
  8
0
100
AcDbText
 10
15.58539899645
 20
11.94196244408746
 30
0.0
 40
0.2506462115725954
  1
E
  7
narrow_arial_bold
100
AcDbText
  0
TEXT
  5
A89
330
207
100
AcDbEntity
  8
0
100
AcDbText
 10
15.58539899645
 20
13.25068707323975
 30
0.0
 40
0.2506462115725954
  1
B
  7
narrow_arial_bold
100
AcDbText
  0
TEXT
  5
A8A
330
207
100
AcDbEntity
  8
0
100
AcDbText
 10
15.58539899645
 20
12.83294338728543
 30
0.0
 40
0.2506462115725954
  1
C
  7
narrow_arial_bold
100
AcDbText
  0
TEXT
  5
A8B
330
207
100
AcDbEntity
  8
0
100
AcDbText
 10
15.58539899645
 20
12.35873255861566
 30
0.0
 40
0.2506462115725954
  1
D
  7
narrow_arial_bold
100
AcDbText
  0
TEXT
  5
A8C
330
207
100
AcDbEntity
  8
0
100
AcDbText
 10
15.21014925272707
 20
14.19713971133314
 30
0.0
 40
0.2506462115725954
  1
ITEM
  7
narrow_arial_bold
100
AcDbText
  0
TEXT
  5
A8D
330
207
100
AcDbEntity
  8
0
100
AcDbText
 10
15.58539899645
 20
13.66843075919408
 30
0.0
 40
0.2506462115725954
  1
A
  7
narrow_arial_bold
100
AcDbText
  0
TEXT
  5
A8E
330
207
100
AcDbEntity
  8
0
100
AcDbText
 10
22.36969162032533
 20
11.57213057518254
 30
0.0
 40
0.125
  1
LW0486 REV. A
  7
narrow_arial_bold
100
AcDbText
  0
TEXT
  5
A8F
330
207
100
AcDbEntity
  8
0
100
AcDbText
 10
20.00841252007289
 20
14.20337454670248
 30
0.0
 40
0.2506462115725954
  1
STANDARD (inch)
  7
narrow_arial_bold
100
AcDbText
  0
TEXT
  5
A90
330
207
100
AcDbEntity
  8
0
100
AcDbText
 10
21.46029744525578
 20
13.70340219769354
 30
0.0
 40
0.2506462115725954
  1
4.7
  7
narrow_arial_bold
100
AcDbText
  0
TEXT
  5
A91
330
207
100
AcDbEntity
  8
0
100
AcDbText
 10
17.03852714049133
 20
14.81489669823347
 30
0.0
 40
0.2506462115725954
  1
DIMENSIONS - ISD100 (PLASTIC)
  7
narrow_arial_bold
100
AcDbText
  0
LINE
  5
A92
330
207
100
AcDbEntity
  8
0
100
AcDbLine
 10
14.91370799162068
 20
14.63359275514627
 30
0.0
 11
23.43567918508896
 21
14.63359275514627
 31
0.0
  0
LINE
  5
A93
330
207
100
AcDbEntity
  8
0
100
AcDbLine
 10
14.91370799162068
 20
15.2351436629205
 30
0.0
 11
23.43567918508896
 21
15.2351436629205
 31
0.0
  0
TEXT
  5
A94
330
207
100
AcDbEntity
  8
0
100
AcDbText
 10
17.91743020499336
 20
13.70340219769353
 30
0.0
 40
0.2506462115725954
  1
120
  7
narrow_arial_bold
100
AcDbText
  0
TEXT
  5
A95
330
207
100
AcDbEntity
  8
0
100
AcDbText
 10
18.06841319077371
 20
13.26226486532577
 30
0.0
 40
0.2506462115725954
  1
14
  7
narrow_arial_bold
100
AcDbText
  0
TEXT
  5
A96
330
207
100
AcDbEntity
  8
0
100
AcDbText
 10
21.6211637251509
 20
13.26226486532578
 30
0.0
 40
0.2506462115725954
  1
.6
  7
narrow_arial_bold
100
AcDbText
  0
TEXT
  5
A97
330
207
100
AcDbEntity
  8
0
100
AcDbText
 10
17.91550837076016
 20
12.82112753295799
 30
0.0
 40
0.2506462115725954
  1
104
  7
narrow_arial_bold
100
AcDbText
  0
TEXT
  5
A98
330
207
100
AcDbEntity
  8
0
100
AcDbText
 10
21.46029744525578
 20
12.821127532958
 30
0.0
 40
0.2506462115725954
  1
4.1
  7
narrow_arial_bold
100
AcDbText
  0
TEXT
  5
A99
330
207
100
AcDbEntity
  8
0
100
AcDbText
 10
18.22575715712153
 20
12.37999020059023
 30
0.0
 40
0.2506462115725954
  1
8
  7
narrow_arial_bold
100
AcDbText
  0
TEXT
  5
A9A
330
207
100
AcDbEntity
  8
0
100
AcDbText
 10
21.62116362394593
 20
12.37999020059024
 30
0.0
 40
0.2506462115725954
  1
.3
  7
narrow_arial_bold
100
AcDbText
  0
TEXT
  5
A9B
330
207
100
AcDbEntity
  8
0
100
AcDbText
 10
18.22575715712153
 20
11.93885286822246
 30
0.0
 40
0.2506462115725954
  1
8
  7
narrow_arial_bold
100
AcDbText
  0
TEXT
  5
A9C
330
207
100
AcDbEntity
  8
0
100
AcDbText
 10
21.62116362394593
 20
11.93885286822247
 30
0.0
 40
0.2506462115725954
  1
.3
  7
narrow_arial_bold
100
AcDbText
  0
ENDSEC
  0
SECTION
  2
OBJECTS
  0
DICTIONARY
  5
C
330
0
100
AcDbDictionary
281
     1
  3
ACAD_CIP_PREVIOUS_PRODUCT_INFO
350
4EA
  3
ACAD_COLOR
350
483
  3
ACAD_DETAILVIEWSTYLE
350
4E4
  3
ACAD_FIELDLIST
350
E0F
  3
ACAD_GROUP
350
D
  3
ACAD_LAYOUT
350
1A
  3
ACAD_MATERIAL
350
456
  3
ACAD_MLEADERSTYLE
350
4A8
  3
ACAD_MLINESTYLE
350
17
  3
ACAD_PLOTSETTINGS
350
19
  3
ACAD_PLOTSTYLENAME
350
E
  3
ACAD_SCALELIST
350
486
  3
ACAD_SECTIONVIEWSTYLE
350
4E2
  3
ACAD_TABLESTYLE
350
484
  3
ACAD_VISUALSTYLE
350
46F
  3
ACDB_RECOMPOSE_DATA
350
E1B
  3
AcDbVariableDictionary
350
4D5
  3
AcDsDecomposeData
350
E21
  3
AcmDictionary
350
DE0
  3
AMG
350
DB8
  3
AMGSNAPSETTINGS
350
E19
  3
ASE_INDEX_DICTIONARY
350
D42
  0
DICTIONARY
  5
4F4
330
2
100
AcDbDictionary
280
     1
281
     1
  3
ACAD_LAYERSTATES
360
4F5
  0
DICTIONARY
  5
7C2
330
7C1
100
AcDbDictionary
280
     1
281
     1
  0
DICTIONARY
  5
7C4
330
7C3
100
AcDbDictionary
280
     1
281
     1
  0
DICTIONARY
  5
7C6
330
7C5
100
AcDbDictionary
280
     1
281
     1
  0
DICTIONARY
  5
7C8
330
7C7
100
AcDbDictionary
280
     1
281
     1
  0
DICTIONARY
  5
7CA
330
7C9
100
AcDbDictionary
280
     1
281
     1
  0
DICTIONARY
  5
9C1
330
9C0
100
AcDbDictionary
280
     1
281
     1
  0
DICTIONARY
  5
508
330
207
100
AcDbDictionary
280
     1
281
     1
  3
ACAD_SORTENTS
360
509
  0
DICTIONARY
  5
9A2
330
7DC
100
AcDbDictionary
280
     1
281
     1
  3
ACAD_SORTENTS
360
9A3
  0
DICTIONARY
  5
647
330
638
100
AcDbDictionary
280
     1
281
     1
  3
ACAD_DIMASSOC
360
652
  0
DICTIONARY
  5
661
330
653
100
AcDbDictionary
280
     1
281
     1
  3
ACAD_DIMASSOC
360
66C
  0
DICTIONARY
  5
67B
330
66D
100
AcDbDictionary
280
     1
281
     1
  3
ACAD_DIMASSOC
360
686
  0
DICTIONARY
  5
695
330
687
100
AcDbDictionary
280
     1
281
     1
  3
ACAD_DIMASSOC
360
6A0
  0
DICTIONARY
  5
6AF
330
6A1
100
AcDbDictionary
280
     1
281
     1
  3
ACAD_DIMASSOC
360
6BA
  0
XRECORD
  5
4EA
102
{ACAD_REACTORS
330
C
102
}
330
C
100
AcDbXrecord
280
     1
300
AMECH_PP
300
2018
300
86839AMECH_PP_2018_0F
  0
DICTIONARY
  5
483
102
{ACAD_REACTORS
330
C
102
}
330
C
100
AcDbDictionary
281
     1
  0
DICTIONARY
  5
4E4
102
{ACAD_REACTORS
330
C
102
}
330
C
100
AcDbDictionary
281
     1
  3
Imperial24
350
4E5
  0
FIELDLIST
  5
E0F
102
{ACAD_REACTORS
330
C
102
}
330
C
100
AcDbIdSet
 90
        4
330
E0D
330
E0E
330
E10
330
E11
100
AcDbFieldList
  0
DICTIONARY
  5
D
102
{ACAD_REACTORS
330
C
102
}
330
C
100
AcDbDictionary
281
     1
  0
DICTIONARY
  5
1A
102
{ACAD_REACTORS
330
C
102
}
330
C
100
AcDbDictionary
281
     1
  3
Layout1
350
453
  3
Model
350
452
  0
DICTIONARY
  5
456
102
{ACAD_REACTORS
330
C
102
}
330
C
100
AcDbDictionary
281
     1
  3
ByBlock
350
45F
  3
ByLayer
350
457
  3
Global
350
467
  0
DICTIONARY
  5
4A8
102
{ACAD_REACTORS
330
C
102
}
330
C
100
AcDbDictionary
281
     1
  3
Standard
350
4A9
  0
DICTIONARY
  5
17
102
{ACAD_REACTORS
330
C
102
}
330
C
100
AcDbDictionary
281
     1
  3
Standard
350
18
  0
DICTIONARY
  5
19
102
{ACAD_REACTORS
330
C
102
}
330
C
100
AcDbDictionary
281
     1
  0
ACDBDICTIONARYWDFLT
  5
E
102
{ACAD_REACTORS
330
C
102
}
330
C
100
AcDbDictionary
281
     1
  3
Normal
350
F
100
AcDbDictionaryWithDefault
340
F
  0
DICTIONARY
  5
486
102
{ACAD_REACTORS
330
C
102
}
330
C
100
AcDbDictionary
281
     1
  3
A0
350
487
  3
A1
350
488
  3
A2
350
489
  3
A3
350
48A
  3
A4
350
48B
  3
A5
350
48C
  3
A6
350
48D
  3
A7
350
48E
  3
A8
350
48F
  3
A9
350
490
  3
B0
350
491
  3
B1
350
492
  3
B2
350
493
  3
B3
350
494
  3
B4
350
495
  3
B5
350
496
  3
B6
350
497
  3
B7
350
498
  3
B8
350
499
  3
B9
350
49A
  3
C0
350
49B
  3
C1
350
49C
  3
C2
350
49D
  3
C3
350
49E
  3
C4
350
49F
  3
C5
350
4A0
  3
C6
350
4A1
  3
C7
350
4A2
  3
C8
350
4A3
  3
C9
350
4A4
  3
D0
350
4A5
  3
D1
350
4A6
  3
D2
350
4A7
  0
DICTIONARY
  5
4E2
102
{ACAD_REACTORS
330
C
102
}
330
C
100
AcDbDictionary
281
     1
  3
Imperial24
350
4E3
  0
DICTIONARY
  5
484
102
{ACAD_REACTORS
330
C
102
}
330
C
100
AcDbDictionary
281
     1
  3
Standard
350
485
  0
DICTIONARY
  5
46F
102
{ACAD_REACTORS
330
C
102
}
330
C
100
AcDbDictionary
281
     1
  3
2dWireframe
350
475
  3
3D Hidden
350
477
  3
3dWireframe
350
476
  3
Basic
350
474
  3
Brighten
350
47B
  3
ColorChange
350
47F
  3
Conceptual
350
478
  3
Dim
350
47A
  3
EdgeColorOff
350
482
  3
Facepattern
350
47E
  3
Flat
350
470
  3
FlatWithEdges
350
471
  3
Gouraud
350
472
  3
GouraudWithEdges
350
473
  3
Hidden
350
4DC
  3
JitterOff
350
480
  3
Linepattern
350
47D
  3
OverhangOff
350
481
  3
Realistic
350
479
  3
Shaded
350
4E1
  3
Shaded with edges
350
4E0
  3
Shades of Gray
350
4DD
  3
Sketchy
350
4DE
  3
Thicken
350
47C
  3
Wireframe
350
4DB
  3
X-Ray
350
4DF
  0
XRECORD
  5
E1B
102
{ACAD_REACTORS
330
C
102
}
330
C
100
AcDbXrecord
280
     1
 90
        1
330
485
  0
DICTIONARY
  5
4D5
102
{ACAD_REACTORS
330
C
102
}
330
C
100
AcDbDictionary
281
     1
  3
CANNOSCALE
350
4D8
  3
CMLEADERSTYLE
350
4D7
  3
CTABLESTYLE
350
4D6
  3
CVIEWDETAILSTYLE
350
611
  3
CVIEWSECTIONSTYLE
350
612
  0
DICTIONARY
  5
E21
102
{ACAD_REACTORS
330
C
102
}
330
C
100
AcDbDictionary
281
     1
  3
AcDsRecords
350
E23
  3
AcDsSchemas
350
E22
1001
ACAD
1070
     2
  0
DICTIONARY
  5
DE0
102
{ACAD_REACTORS
330
C
102
}
330
C
100
AcDbDictionary
281
     1
  3
AcmStdDictionary
350
DE7
  0
DICTIONARY
  5
DB8
102
{ACAD_REACTORS
330
C
102
}
330
C
100
AcDbDictionary
281
     1
  0
DICTIONARY
  5
E19
102
{ACAD_REACTORS
330
C
102
}
330
C
100
AcDbDictionary
281
     1
  0
DICTIONARY
  5
D42
102
{ACAD_REACTORS
330
C
102
}
330
C
100
AcDbDictionary
281
     1
  3
ASEBlockHierarchyIndexRecord
350
D43
1001
DCO15
1040
1970215242.542
  0
DICTIONARY
  5
4F5
102
{ACAD_REACTORS
330
4F4
102
}
330
4F4
100
AcDbDictionary
281
     1
  0
SORTENTSTABLE
  5
509
102
{ACAD_REACTORS
330
508
102
}
330
508
100
AcDbSortentsTable
330
207
331
242
  5
244
331
283
  5
286
331
24E
  5
250
331
28F
  5
292
331
24A
  5
24D
331
217
  5
218
331
213
  5
213
331
75F
  5
71D
331
5E1
  5
3A9
331
9DC
  5
9DC
331
9D8
  5
9D8
331
9E0
  5
9E0
331
276
  5
278
331
397
  5
39A
331
23F
  5
242
331
23B
  5
23D
331
5CB
  5
5DC
331
722
  5
724
331
9D7
  5
9D7
331
262
  5
264
331
22F
  5
231
331
37B
  5
380
331
26E
  5
270
331
22B
  5
22D
331
5BF
  5
5C2
331
237
  5
239
331
5BB
  5
5BE
331
5C7
  5
5CA
331
716
  5
716
331
5C3
  5
5C6
331
71E
  5
71F
331
405
  5
40E
331
401
  5
40A
331
409
  5
424
331
255
  5
259
331
251
  5
253
331
25D
  5
25F
331
376
  5
379
331
259
  5
25B
331
226
  5
22C
331
222
  5
224
331
66D
  5
66D
331
5B6
  5
5BA
331
5B2
  5
5B6
331
3F4
  5
3FD
331
3FC
  5
405
331
3F8
  5
401
331
24D
  5
24F
331
249
  5
24C
331
216
  5
217
331
212
  5
212
331
5DC
  5
5DF
331
506
  5
531
331
5E0
  5
3AA
331
762
  5
761
331
6A1
  5
6A1
331
9DF
  5
9DF
331
9DB
  5
9DB
331
275
  5
277
331
396
  5
399
331
271
  5
275
331
392
  5
395
331
279
  5
27C
331
5CA
  5
5DB
331
638
  5
638
331
721
  5
723
331
9D6
  5
9D6
331
265
  5
26B
331
261
  5
263
331
22E
  5
230
331
37A
  5
37D
331
26D
  5
26F
331
236
  5
238
331
5BE
  5
5C1
331
5BA
  5
3AB
331
5C6
  5
5C9
331
5C2
  5
5C5
331
71D
  5
71E
331
404
  5
40D
331
400
  5
409
331
408
  5
423
331
295
  5
298
331
254
  5
256
331
291
  5
294
331
250
  5
252
331
21D
  5
21F
331
25C
  5
25E
331
225
  5
22B
331
221
  5
223
331
5B5
  5
5B9
331
5B1
  5
5B5
331
3F7
  5
400
331
3FF
  5
408
331
3FB
  5
404
331
244
  5
249
331
240
  5
243
331
24C
  5
24E
331
248
  5
24A
331
215
  5
216
331
5DF
  5
5E1
331
5DB
  5
5DE
331
39B
  5
39E
331
3A7
  5
3B3
331
9DE
  5
9DE
331
9DA
  5
9DA
331
395
  5
398
331
274
  5
276
331
270
  5
274
331
239
  5
23C
331
278
  5
27B
331
5C9
  5
5CC
331
9D5
  5
9D5
331
37D
  5
384
331
379
  5
37C
331
260
  5
262
331
22D
  5
22F
331
385
  5
388
331
26C
  5
26E
331
381
  5
386
331
5BD
  5
5C0
331
235
  5
237
331
5B9
  5
5BD
331
231
  5
234
331
5C5
  5
5C8
331
5C1
  5
5C4
331
718
  5
718
331
407
  5
422
331
403
  5
40C
331
294
  5
297
331
253
  5
255
331
25F
  5
261
331
25B
  5
25D
331
218
  5
21D
331
224
  5
226
331
220
  5
222
331
5B4
  5
5B8
331
3F6
  5
3FF
331
3FE
  5
407
331
3FA
  5
403
331
243
  5
248
331
24F
  5
251
331
28C
  5
28F
331
214
  5
215
331
5DE
  5
5E0
331
653
  5
653
331
39A
  5
39D
331
3A6
  5
3B2
331
9DD
  5
9DD
331
9D9
  5
9D9
331
9AA
  5
9AA
331
277
  5
279
331
23C
  5
23E
331
238
  5
23B
331
5CC
  5
5DD
331
5C8
  5
5CB
331
723
  5
75F
331
9D4
  5
9D4
331
267
  5
26C
331
37C
  5
381
331
263
  5
265
331
378
  5
37B
331
26F
  5
271
331
22C
  5
22E
331
384
  5
387
331
26B
  5
26D
331
380
  5
385
331
5BC
  5
5BF
331
5B8
  5
5BC
331
230
  5
233
331
717
  5
717
331
5C4
  5
5C7
331
5C0
  5
5C3
331
687
  5
687
331
71F
  5
720
331
406
  5
40F
331
402
  5
40B
331
256
  5
25A
331
252
  5
254
331
21F
  5
221
331
25E
  5
260
331
21B
  5
21E
331
377
  5
37A
331
25A
  5
25C
331
223
  5
225
331
5B7
  5
5BB
331
5B3
  5
5B7
331
3F5
  5
3FE
331
3FD
  5
406
331
3F9
  5
402
  0
SORTENTSTABLE
  5
9A3
102
{ACAD_REACTORS
330
9A2
102
}
330
9A2
100
AcDbSortentsTable
330
7DC
  0
DIMASSOC
  5
652
102
{ACAD_REACTORS
330
647
102
}
330
647
100
AcDbDimAssoc
330
638
 90
        3
 70
     0
 71
     0
  1
AcDbOsnapPointRef
 72
    13
331
37B
 73
     2
 91
        0
 40
3.141592653589793
 10
0.0
 20
0.0
 30
2.000000000000000E+50
 75
     0
  1
AcDbOsnapPointRef
 72
     6
331
278
 73
     2
 91
        0
 40
1.0
 10
0.0
 20
0.0
 30
0.0
332
37A
 74
     2
 92
        0
 75
     0
  0
DIMASSOC
  5
66C
102
{ACAD_REACTORS
330
661
102
}
330
661
100
AcDbDimAssoc
330
653
 90
        1
 70
     0
 71
     0
  1
AcDbOsnapPointRef
 72
    13
331
26F
 73
     2
 91
        0
 40
0.0
 10
0.0
 20
0.0
 30
2.000000000000000E+50
 75
     0
  0
DIMASSOC
  5
686
102
{ACAD_REACTORS
330
67B
102
}
330
67B
100
AcDbDimAssoc
330
66D
 90
        2
 70
     0
 71
     0
  1
AcDbOsnapPointRef
 72
     2
331
37C
 73
     2
 91
        0
 40
1.570796326794896
 10
0.0
 20
0.0
 30
0.0
 75
     0
  0
DIMASSOC
  5
6A0
102
{ACAD_REACTORS
330
695
102
}
330
695
100
AcDbDimAssoc
330
687
 90
        3
 70
     0
 71
     0
  1
AcDbOsnapPointRef
 72
     1
331
5DC
 73
     2
 91
        0
 40
1.0
 10
0.0
 20
0.0
 30
2.000000000000000E+50
 75
     0
  1
AcDbOsnapPointRef
 72
     1
331
5DF
 73
     2
 91
        0
 40
1.0
 10
0.0
 20
0.0
 30
2.000000000000000E+50
 75
     0
  0
DIMASSOC
  5
6BA
102
{ACAD_REACTORS
330
6AF
102
}
330
6AF
100
AcDbDimAssoc
330
6A1
 90
        3
 70
     0
 71
     0
  1
AcDbOsnapPointRef
 72
    13
331
5DB
 73
     2
 91
        0
 40
0.0
 10
0.0
 20
0.0
 30
2.000000000000000E+50
 75
     0
  1
AcDbOsnapPointRef
 72
    13
331
5DE
 73
     2
 91
        0
 40
0.0
 10
0.0
 20
0.0
 30
2.000000000000000E+50
 75
     0
  0
ACDBDETAILVIEWSTYLE
  5
4E5
102
{ACAD_XDICTIONARY
360
E26
102
}
102
{ACAD_REACTORS
330
4E4
330
E02
102
}
330
4E4
100
AcDbModelDocViewStyle
 70
     0
  3
Imperial24
290
     0
100
AcDbDetailViewStyle
 70
     0
 71
     0
 90
        3
 71
     1
340
11
 62
   256
 40
0.24
340
0
 62
   256
 40
0.24
300

 40
0.36
280
     3
 71
     2
340
16
 90
       25
 62
   256
 71
     3
340
11
 62
   256
 40
0.24
 90
        1
 40
0.75
 90
        1
300
%<\AcVar ViewType \f "%tc1">% %<\AcVar ViewDetailId>%\PSCALE %<\AcVar ViewScale \f "%sn">%
 71
     4
340
16
 90
       25
 62
   256
340
16
 90
       25
 62
   256
280
     0
  0
LAYOUT
  5
453
102
{ACAD_REACTORS
330
1A
102
}
330
1A
100
AcDbPlotSettings
  1

  2
none_device
  4
ANSI_C_(22.00_x_17.00_Inches)
  6

 40
0.0
 41
0.0
 42
0.0
 43
0.0
 44
558.8
 45
431.8
 46
0.0
 47
0.0
 48
0.0
 49
0.0
140
0.0
141
0.0
142
1.0
143
1.0
 70
     0
 72
     0
 73
     0
 74
     0
  7
critical dim color.ctb
 75
     0
147
1.0
 76
     0
 77
     2
 78
   300
148
0.0
149
0.0
100
AcDbLayout
  1
Layout1
 70
     1
 71
     1
 10
0.0
 20
0.0
 11
12.0
 21
9.0
 12
0.0
 22
0.0
 32
0.0
 14
1.000000000000000E+20
 24
1.000000000000000E+20
 34
1.000000000000000E+20
 15
-1.000000000000000E+20
 25
-1.000000000000000E+20
 35
-1.000000000000000E+20
146
0.0
 13
0.0
 23
0.0
 33
0.0
 16
1.0
 26
0.0
 36
0.0
 17
0.0
 27
1.0
 37
0.0
 76
     0
330
208
  0
LAYOUT
  5
452
102
{ACAD_REACTORS
330
1A
102
}
330
1A
100
AcDbPlotSettings
  1

  2
Adobe PDF
  4
Letter
  6

 40
3.174999952316284
 41
3.174999952316284
 42
3.175003051757812
 43
3.17498779296875
 44
215.8999938964844
 45
279.3999938964844
 46
2.381243139505363
 47
0.0
 48
1.836802043670417
 49
4.232005865545211
140
25.83680204367138
141
22.23200586554594
142
1.0
143
2.232558089240485
 70
  3124
 72
     0
 73
     1
 74
     4
  7
critical dim color.ctb
 75
     0
147
0.4479166767571989
 76
     0
 77
     2
 78
   300
148
-46.65477190922859
149
-107.4929489848484
100
AcDbLayout
  1
Model
 70
     0
 71
     0
 10
0.0
 20
0.0
 11
22.0
 21
17.0
 12
0.0
 22
0.0
 32
0.0
 14
0.0
 24
0.0
 34
0.0
 15
0.0
 25
0.0
 35
0.0
146
0.0
 13
0.0
 23
0.0
 33
0.0
 16
1.0
 26
0.0
 36
0.0
 17
0.0
 27
1.0
 37
0.0
 76
     0
330
207
331
1F4
1001
ACAD_PSEXT
1000
Adobe PDF
1000
Adobe PDF Converter
1000
Documents\*.pdf
1000

1070
     0
  0
MATERIAL
  5
45F
102
{ACAD_XDICTIONARY
360
460
102
}
102
{ACAD_REACTORS
330
456
102
}
330
456
100
AcDbMaterial
  1
ByBlock
 72
     0
 43
0.0208333333333333
 43
0.0
 43
0.0
 43
0.0
 43
0.0
 43
0.0208333333333333
 43
0.0
 43
0.0
 43
0.0
 43
0.0
 43
1.0
 43
0.0
 43
0.0
 43
0.0
 43
0.0
 43
1.0
 77
     0
 47
0.0208333333333333
 47
0.0
 47
0.0
 47
0.0
 47
0.0
 47
0.0208333333333333
 47
0.0
 47
0.0
 47
0.0
 47
0.0
 47
1.0
 47
0.0
 47
0.0
 47
0.0
 47
0.0
 47
1.0
171
     0
 49
0.0208333333333333
 49
0.0
 49
0.0
 49
0.0
 49
0.0
 49
0.0208333333333333
 49
0.0
 49
0.0
 49
0.0
 49
0.0
 49
1.0
 49
0.0
 49
0.0
 49
0.0
 49
0.0
 49
1.0
175
     0
142
0.0208333333333333
142
0.0
142
0.0
142
0.0
142
0.0
142
0.0208333333333333
142
0.0
142
0.0
142
0.0
142
0.0
142
1.0
142
0.0
142
0.0
142
0.0
142
0.0
142
1.0
179
     0
144
0.0208333333333333
144
0.0
144
0.0
144
0.0
144
0.0
144
0.0208333333333333
144
0.0
144
0.0
144
0.0
144
0.0
144
1.0
144
0.0
144
0.0
144
0.0
144
0.0
144
1.0
147
0.0208333333333333
147
0.0
147
0.0
147
0.0
147
0.0
147
0.0208333333333333
147
0.0
147
0.0
147
0.0
147
0.0
147
1.0
147
0.0
147
0.0
147
0.0
147
0.0
147
1.0
  0
MATERIAL
  5
457
102
{ACAD_XDICTIONARY
360
458
102
}
102
{ACAD_REACTORS
330
456
102
}
330
456
100
AcDbMaterial
  1
ByLayer
 72
     0
 43
0.0208333333333333
 43
0.0
 43
0.0
 43
0.0
 43
0.0
 43
0.0208333333333333
 43
0.0
 43
0.0
 43
0.0
 43
0.0
 43
1.0
 43
0.0
 43
0.0
 43
0.0
 43
0.0
 43
1.0
 77
     0
 47
0.0208333333333333
 47
0.0
 47
0.0
 47
0.0
 47
0.0
 47
0.0208333333333333
 47
0.0
 47
0.0
 47
0.0
 47
0.0
 47
1.0
 47
0.0
 47
0.0
 47
0.0
 47
0.0
 47
1.0
171
     0
 49
0.0208333333333333
 49
0.0
 49
0.0
 49
0.0
 49
0.0
 49
0.0208333333333333
 49
0.0
 49
0.0
 49
0.0
 49
0.0
 49
1.0
 49
0.0
 49
0.0
 49
0.0
 49
0.0
 49
1.0
175
     0
142
0.0208333333333333
142
0.0
142
0.0
142
0.0
142
0.0
142
0.0208333333333333
142
0.0
142
0.0
142
0.0
142
0.0
142
1.0
142
0.0
142
0.0
142
0.0
142
0.0
142
1.0
179
     0
144
0.0208333333333333
144
0.0
144
0.0
144
0.0
144
0.0
144
0.0208333333333333
144
0.0
144
0.0
144
0.0
144
0.0
144
1.0
144
0.0
144
0.0
144
0.0
144
0.0
144
1.0
147
0.0208333333333333
147
0.0
147
0.0
147
0.0
147
0.0
147
0.0208333333333333
147
0.0
147
0.0
147
0.0
147
0.0
147
1.0
147
0.0
147
0.0
147
0.0
147
0.0
147
1.0
  0
MATERIAL
  5
467
102
{ACAD_XDICTIONARY
360
468
102
}
102
{ACAD_REACTORS
330
456
102
}
330
456
100
AcDbMaterial
  1
Global
 72
     0
 43
0.0208333333333333
 43
0.0
 43
0.0
 43
0.0
 43
0.0
 43
0.0208333333333333
 43
0.0
 43
0.0
 43
0.0
 43
0.0
 43
1.0
 43
0.0
 43
0.0
 43
0.0
 43
0.0
 43
1.0
 77
     0
 47
0.0208333333333333
 47
0.0
 47
0.0
 47
0.0
 47
0.0
 47
0.0208333333333333
 47
0.0
 47
0.0
 47
0.0
 47
0.0
 47
1.0
 47
0.0
 47
0.0
 47
0.0
 47
0.0
 47
1.0
171
     0
 49
0.0208333333333333
 49
0.0
 49
0.0
 49
0.0
 49
0.0
 49
0.0208333333333333
 49
0.0
 49
0.0
 49
0.0
 49
0.0
 49
1.0
 49
0.0
 49
0.0
 49
0.0
 49
0.0
 49
1.0
175
     0
142
0.0208333333333333
142
0.0
142
0.0
142
0.0
142
0.0
142
0.0208333333333333
142
0.0
142
0.0
142
0.0
142
0.0
142
1.0
142
0.0
142
0.0
142
0.0
142
0.0
142
1.0
179
     0
144
0.0208333333333333
144
0.0
144
0.0
144
0.0
144
0.0
144
0.0208333333333333
144
0.0
144
0.0
144
0.0
144
0.0
144
1.0
144
0.0
144
0.0
144
0.0
144
0.0
144
1.0
147
0.0208333333333333
147
0.0
147
0.0
147
0.0
147
0.0
147
0.0208333333333333
147
0.0
147
0.0
147
0.0
147
0.0
147
1.0
147
0.0
147
0.0
147
0.0
147
0.0
147
1.0
  0
MLEADERSTYLE
  5
4A9
102
{ACAD_REACTORS
330
4A8
102
}
330
4A8
100
AcDbMLeaderStyle
179
     2
170
     2
171
     1
172
     0
 90
        2
 40
0.0
 41
0.0
173
     1
 91
-1056964608
340
14
 92
       -2
290
     1
 42
0.09
291
     1
 43
0.36
  3
Standard
 44
0.18
300

342
11
174
     1
178
     6
175
     1
176
     0
 93
-1056964608
 45
0.18
292
     0
297
     0
 46
0.18
 94
-1056964608
 47
1.0
 49
1.0
140
1.0
293
     1
141
0.0
294
     1
177
     0
142
1.0
295
     0
296
     0
143
0.125
271
     0
272
     9
273
     9
298
     0
  0
MLINESTYLE
  5
18
102
{ACAD_REACTORS
330
17
102
}
330
17
100
AcDbMlineStyle
  2
STANDARD
 70
     0
  3

 62
   256
 51
90.0
 52
90.0
 71
     2
 49
0.5
 62
   256
  6
BYLAYER
 49
-0.5
 62
   256
  6
BYLAYER
  0
ACDBPLACEHOLDER
  5
F
102
{ACAD_REACTORS
330
E
102
}
330
E
  0
SCALE
  5
487
102
{ACAD_REACTORS
330
486
102
}
330
486
100
AcDbScale
 70
     0
300
1:1
140
1.0
141
1.0
290
     1
  0
SCALE
  5
488
102
{ACAD_REACTORS
330
486
102
}
330
486
100
AcDbScale
 70
     0
300
1:2
140
1.0
141
2.0
290
     0
  0
SCALE
  5
489
102
{ACAD_REACTORS
330
486
102
}
330
486
100
AcDbScale
 70
     0
300
1:4
140
1.0
141
4.0
290
     0
  0
SCALE
  5
48A
102
{ACAD_REACTORS
330
486
102
}
330
486
100
AcDbScale
 70
     0
300
1:5
140
1.0
141
5.0
290
     0
  0
SCALE
  5
48B
102
{ACAD_REACTORS
330
486
102
}
330
486
100
AcDbScale
 70
     0
300
1:8
140
1.0
141
8.0
290
     0
  0
SCALE
  5
48C
102
{ACAD_REACTORS
330
486
102
}
330
486
100
AcDbScale
 70
     0
300
1:10
140
1.0
141
10.0
290
     0
  0
SCALE
  5
48D
102
{ACAD_REACTORS
330
486
102
}
330
486
100
AcDbScale
 70
     0
300
1:16
140
1.0
141
16.0
290
     0
  0
SCALE
  5
48E
102
{ACAD_REACTORS
330
486
102
}
330
486
100
AcDbScale
 70
     0
300
1:20
140
1.0
141
20.0
290
     0
  0
SCALE
  5
48F
102
{ACAD_REACTORS
330
486
102
}
330
486
100
AcDbScale
 70
     0
300
1:30
140
1.0
141
30.0
290
     0
  0
SCALE
  5
490
102
{ACAD_REACTORS
330
486
102
}
330
486
100
AcDbScale
 70
     0
300
1:40
140
1.0
141
40.0
290
     0
  0
SCALE
  5
491
102
{ACAD_REACTORS
330
486
102
}
330
486
100
AcDbScale
 70
     0
300
1:50
140
1.0
141
50.0
290
     0
  0
SCALE
  5
492
102
{ACAD_REACTORS
330
486
102
}
330
486
100
AcDbScale
 70
     0
300
1:100
140
1.0
141
100.0
290
     0
  0
SCALE
  5
493
102
{ACAD_REACTORS
330
486
102
}
330
486
100
AcDbScale
 70
     0
300
2:1
140
2.0
141
1.0
290
     0
  0
SCALE
  5
494
102
{ACAD_REACTORS
330
486
102
}
330
486
100
AcDbScale
 70
     0
300
4:1
140
4.0
141
1.0
290
     0
  0
SCALE
  5
495
102
{ACAD_REACTORS
330
486
102
}
330
486
100
AcDbScale
 70
     0
300
8:1
140
8.0
141
1.0
290
     0
  0
SCALE
  5
496
102
{ACAD_REACTORS
330
486
102
}
330
486
100
AcDbScale
 70
     0
300
10:1
140
10.0
141
1.0
290
     0
  0
SCALE
  5
497
102
{ACAD_REACTORS
330
486
102
}
330
486
100
AcDbScale
 70
     0
300
100:1
140
100.0
141
1.0
290
     0
  0
SCALE
  5
498
102
{ACAD_REACTORS
330
486
102
}
330
486
100
AcDbScale
 70
     0
300
1/128" = 1'-0"
140
0.0078125
141
12.0
290
     0
  0
SCALE
  5
499
102
{ACAD_REACTORS
330
486
102
}
330
486
100
AcDbScale
 70
     0
300
1/64" = 1'-0"
140
0.015625
141
12.0
290
     0
  0
SCALE
  5
49A
102
{ACAD_REACTORS
330
486
102
}
330
486
100
AcDbScale
 70
     0
300
1/32" = 1'-0"
140
0.03125
141
12.0
290
     0
  0
SCALE
  5
49B
102
{ACAD_REACTORS
330
486
102
}
330
486
100
AcDbScale
 70
     0
300
1/16" = 1'-0"
140
0.0625
141
12.0
290
     0
  0
SCALE
  5
49C
102
{ACAD_REACTORS
330
486
102
}
330
486
100
AcDbScale
 70
     0
300
3/32" = 1'-0"
140
0.09375
141
12.0
290
     0
  0
SCALE
  5
49D
102
{ACAD_REACTORS
330
486
102
}
330
486
100
AcDbScale
 70
     0
300
1/8" = 1'-0"
140
0.125
141
12.0
290
     0
  0
SCALE
  5
49E
102
{ACAD_REACTORS
330
486
102
}
330
486
100
AcDbScale
 70
     0
300
3/16" = 1'-0"
140
0.1875
141
12.0
290
     0
  0
SCALE
  5
49F
102
{ACAD_REACTORS
330
486
102
}
330
486
100
AcDbScale
 70
     0
300
1/4" = 1'-0"
140
0.25
141
12.0
290
     0
  0
SCALE
  5
4A0
102
{ACAD_REACTORS
330
486
102
}
330
486
100
AcDbScale
 70
     0
300
3/8" = 1'-0"
140
0.375
141
12.0
290
     0
  0
SCALE
  5
4A1
102
{ACAD_REACTORS
330
486
102
}
330
486
100
AcDbScale
 70
     0
300
1/2" = 1'-0"
140
0.5
141
12.0
290
     0
  0
SCALE
  5
4A2
102
{ACAD_REACTORS
330
486
102
}
330
486
100
AcDbScale
 70
     0
300
3/4" = 1'-0"
140
0.75
141
12.0
290
     0
  0
SCALE
  5
4A3
102
{ACAD_REACTORS
330
486
102
}
330
486
100
AcDbScale
 70
     0
300
1" = 1'-0"
140
1.0
141
12.0
290
     0
  0
SCALE
  5
4A4
102
{ACAD_REACTORS
330
486
102
}
330
486
100
AcDbScale
 70
     0
300
1-1/2" = 1'-0"
140
1.5
141
12.0
290
     0
  0
SCALE
  5
4A5
102
{ACAD_REACTORS
330
486
102
}
330
486
100
AcDbScale
 70
     0
300
3" = 1'-0"
140
3.0
141
12.0
290
     0
  0
SCALE
  5
4A6
102
{ACAD_REACTORS
330
486
102
}
330
486
100
AcDbScale
 70
     0
300
6" = 1'-0"
140
6.0
141
12.0
290
     0
  0
SCALE
  5
4A7
102
{ACAD_REACTORS
330
486
102
}
330
486
100
AcDbScale
 70
     0
300
1'-0" = 1'-0"
140
12.0
141
12.0
290
     0
  0
ACDBSECTIONVIEWSTYLE
  5
4E3
102
{ACAD_XDICTIONARY
360
E24
102
}
102
{ACAD_REACTORS
330
4E2
330
E01
102
}
330
4E2
100
AcDbModelDocViewStyle
 70
     0
  3
Imperial24
290
     0
100
AcDbSectionViewStyle
 70
     0
 71
     0
 90
       78
 71
     1
340
11
 62
   256
 40
0.24
340
0
340
0
 62
   256
 40
0.24
300
I, O, Q, S, X, Z
 40
0.48
 90
        3
 40
0.18
 90
        1
 71
     2
340
16
 90
       25
 62
   256
340
16
 90
       50
 62
   256
 40
0.24
 40
0.0
 40
0.24
 71
     3
340
11
 62
   256
 40
0.24
 90
        1
 40
0.75
 90
        1
300
%<\AcVar ViewType \f "%tc1">% %<\AcVar ViewSectionStartId>%-%<\AcVar ViewSectionEndId>%\PSCALE %<\AcVar ViewScale \f "%sn">%
 71
     4
 62
   256
 62
   257
300
ANSI31
 40
1.0
 90
        0
290
     0
290
     0
 90
        6
 40
0.0
 40
1.570796326794896
 40
0.2617993877991494
 40
1.308996938995747
 40
-0.2617993877991494
 40
1.832595714594046
  0
TABLESTYLE
  5
485
102
{ACAD_XDICTIONARY
360
4AB
102
}
102
{ACAD_REACTORS
330
484
102
}
330
484
100
AcDbTableStyle
280
     0
  3
Standard
 70
     0
 71
     0
 40
0.06
 41
0.06
280
     0
281
     0
  7
STANDARD
140
0.18
170
     2
 62
     0
 63
     7
283
     0
 90
      512
 91
        0
  1

274
    -2
284
     1
 64
     0
275
    -2
285
     1
 65
     0
276
    -2
286
     1
 66
     0
277
    -2
287
     1
 67
     0
278
    -2
288
     1
 68
     0
279
    -2
289
     1
 69
     0
  7
STANDARD
140
0.25
170
     5
 62
     0
 63
     7
283
     0
 90
      512
 91
        0
  1

274
    -2
284
     1
 64
     0
275
    -2
285
     1
 65
     0
276
    -2
286
     1
 66
     0
277
    -2
287
     1
 67
     0
278
    -2
288
     1
 68
     0
279
    -2
289
     1
 69
     0
  7
STANDARD
140
0.18
170
     5
 62
     0
 63
     7
283
     0
 90
      512
 91
        0
  1

274
    -2
284
     1
 64
     0
275
    -2
285
     1
 65
     0
276
    -2
286
     1
 66
     0
277
    -2
287
     1
 67
     0
278
    -2
288
     1
 68
     0
279
    -2
289
     1
 69
     0
  0
VISUALSTYLE
  5
475
102
{ACAD_REACTORS
330
46F
102
}
330
46F
100
AcDbVisualStyle
  2
2dWireframe
 70
     4
177
     3
291
     0
 70
    58
 90
        0
176
     1
 90
        2
176
     1
 90
        0
176
     1
 90
        0
176
     1
 40
0.6
176
     1
 40
30.0
176
     1
 62
     7
420
 16777215
176
     1
 90
        1
176
     1
 90
        4
176
     1
 62
     7
176
     1
 62
   257
176
     1
 90
        1
176
     1
 90
        1
176
     1
 40
1.0
176
     1
 90
        0
176
     1
 62
   257
176
     1
 40
1.0
176
     1
 90
        1
176
     1
 90
        6
176
     1
 90
        2
176
     1
 62
     7
176
     1
 90
        5
176
     1
 90
        0
176
     1
 90
        0
176
     1
290
     0
176
     1
 90
        1
176
     1
 40
0.0
176
     1
 90
        0
176
     1
290
     1
176
     1
290
     1
176
     1
290
     0
176
     1
290
     0
176
     1
290
     0
176
     1
290
     0
176
     1
290
     0
176
     1
290
     0
176
     1
290
     0
176
     1
 90
       50
176
     1
 40
0.0
176
     1
 40
1.0
176
     1
 90
        0
176
     1
 62
    18
420
        0
176
     1
 90
       50
176
     1
 90
        3
176
     1
 62
     5
420
      255
176
     1
290
     0
176
     1
 90
       50
176
     1
 90
       50
176
     1
 90
       50
176
     1
290
     0
176
     1
 90
       50
176
     1
 62
   256
176
     0
 40
1.0
176
     0
 90
        2
176
     1
  1
strokes_ogs.tif
176
     1
290
     0
176
     1
 40
1.0
176
     1
 40
1.0
176
     1
1001
ACAD
1000
AcDbSavedByObjectVersion
1070
     0
  0
VISUALSTYLE
  5
477
102
{ACAD_REACTORS
330
46F
102
}
330
46F
100
AcDbVisualStyle
  2
3D Hidden
 70
     6
177
     3
291
     0
 70
    58
 90
        1
176
     1
 90
        2
176
     1
 90
        2
176
     1
 90
        0
176
     1
 40
0.6
176
     1
 40
30.0
176
     1
 62
     7
420
 16777215
176
     1
 90
        2
176
     1
 90
        2
176
     1
 62
     7
176
     1
 62
   257
176
     1
 90
        2
176
     1
 90
        1
176
     1
 40
179.0
176
     1
 90
        0
176
     1
 62
   257
176
     1
 40
1.0
176
     1
 90
        1
176
     1
 90
        6
176
     1
 90
        2
176
     1
 62
     7
176
     1
 90
        3
176
     1
 90
        0
176
     1
 90
        0
176
     1
290
     0
176
     1
 90
        1
176
     1
 40
0.0
176
     1
 90
        0
176
     1
290
     0
176
     1
290
     1
176
     1
290
     1
176
     1
290
     0
176
     1
290
     0
176
     1
290
     0
176
     1
290
     0
176
     1
290
     0
176
     1
290
     0
176
     1
 90
       50
176
     1
 40
0.0
176
     1
 40
1.0
176
     1
 90
        0
176
     1
 62
    18
420
        0
176
     1
 90
       50
176
     1
 90
        3
176
     1
 62
     5
420
      255
176
     1
290
     0
176
     1
 90
       50
176
     1
 90
       50
176
     1
 90
       50
176
     1
290
     0
176
     1
 90
       50
176
     1
 62
   256
176
     0
 40
1.0
176
     0
 90
        2
176
     1
  1
strokes_ogs.tif
176
     1
290
     0
176
     1
 40
1.0
176
     1
 40
1.0
176
     1
1001
ACAD
1000
AcDbSavedByObjectVersion
1070
     0
  0
VISUALSTYLE
  5
476
102
{ACAD_REACTORS
330
46F
102
}
330
46F
100
AcDbVisualStyle
  2
3dWireframe
 70
     5
177
     3
291
     0
 70
    58
 90
        0
176
     1
 90
        2
176
     1
 90
        0
176
     1
 90
        0
176
     1
 40
0.6
176
     1
 40
30.0
176
     1
 62
     7
420
 16777215
176
     1
 90
        1
176
     1
 90
        4
176
     1
 62
     7
176
     1
 62
   257
176
     1
 90
        1
176
     1
 90
        1
176
     1
 40
1.0
176
     1
 90
        0
176
     1
 62
   257
176
     1
 40
1.0
176
     1
 90
        1
176
     1
 90
        6
176
     1
 90
        2
176
     1
 62
     7
176
     1
 90
        5
176
     1
 90
        0
176
     1
 90
        0
176
     1
290
     0
176
     1
 90
        1
176
     1
 40
0.0
176
     1
 90
        0
176
     1
290
     0
176
     1
290
     1
176
     1
290
     1
176
     1
290
     0
176
     1
290
     0
176
     1
290
     0
176
     1
290
     0
176
     1
290
     0
176
     1
290
     0
176
     1
 90
       50
176
     1
 40
0.0
176
     1
 40
1.0
176
     1
 90
        0
176
     1
 62
    18
420
        0
176
     1
 90
       50
176
     1
 90
        3
176
     1
 62
     5
420
      255
176
     1
290
     0
176
     1
 90
       50
176
     1
 90
       50
176
     1
 90
       50
176
     1
290
     0
176
     1
 90
       50
176
     1
 62
   256
176
     0
 40
1.0
176
     0
 90
        2
176
     1
  1
strokes_ogs.tif
176
     1
290
     0
176
     1
 40
1.0
176
     1
 40
1.0
176
     1
1001
ACAD
1000
AcDbSavedByObjectVersion
1070
     0
  0
VISUALSTYLE
  5
474
102
{ACAD_REACTORS
330
46F
102
}
330
46F
100
AcDbVisualStyle
  2
Basic
 70
     7
177
     3
291
     1
 70
    58
 90
        1
176
     1
 90
        0
176
     1
 90
        1
176
     1
 90
        0
176
     1
 40
0.6
176
     1
 40
30.0
176
     1
 62
     7
420
 16777215
176
     1
 90
        0
176
     1
 90
        4
176
     1
 62
     7
176
     1
 62
   257
176
     1
 90
        1
176
     1
 90
        1
176
     1
 40
1.0
176
     1
 90
        8
176
     1
 62
     7
176
     1
 40
1.0
176
     1
 90
        1
176
     1
 90
        6
176
     1
 90
        2
176
     1
 62
     7
176
     1
 90
        5
176
     1
 90
        0
176
     1
 90
        0
176
     1
290
     0
176
     1
 90
        1
176
     1
 40
0.0
176
     1
 90
        0
176
     1
290
     0
176
     1
290
     1
176
     1
290
     1
176
     1
290
     0
176
     1
290
     0
176
     1
290
     0
176
     1
290
     0
176
     1
290
     0
176
     1
290
     0
176
     1
 90
       50
176
     1
 40
0.0
176
     1
 40
1.0
176
     1
 90
        0
176
     1
 62
    18
420
        0
176
     1
 90
       50
176
     1
 90
        3
176
     1
 62
     5
420
      255
176
     1
290
     0
176
     1
 90
       50
176
     1
 90
       50
176
     1
 90
       50
176
     1
290
     0
176
     1
 90
       50
176
     1
 62
   256
176
     0
 40
1.0
176
     0
 90
        2
176
     1
  1
strokes_ogs.tif
176
     1
290
     0
176
     1
 40
1.0
176
     1
 40
1.0
176
     1
1001
ACAD
1000
AcDbSavedByObjectVersion
1070
     0
  0
VISUALSTYLE
  5
47B
102
{ACAD_REACTORS
330
46F
102
}
330
46F
100
AcDbVisualStyle
  2
Brighten
 70
    12
177
     3
291
     1
 70
    58
 90
        2
176
     1
 90
        2
176
     1
 90
        0
176
     1
 90
        0
176
     1
 40
0.6
176
     1
 40
30.0
176
     1
 62
     7
420
 16777215
176
     1
 90
        1
176
     1
 90
        4
176
     1
 62
     7
176
     1
 62
   257
176
     1
 90
        1
176
     1
 90
        1
176
     1
 40
1.0
176
     1
 90
        8
176
     1
 62
     7
176
     1
 40
1.0
176
     1
 90
        1
176
     1
 90
        6
176
     1
 90
        2
176
     1
 62
     7
176
     1
 90
        5
176
     1
 90
        0
176
     1
 90
        0
176
     1
290
     0
176
     1
 90
        1
176
     1
 40
50.0
176
     1
 90
        0
176
     1
290
     0
176
     1
290
     1
176
     1
290
     1
176
     1
290
     0
176
     1
290
     0
176
     1
290
     0
176
     1
290
     0
176
     1
290
     0
176
     1
290
     0
176
     1
 90
       50
176
     1
 40
0.0
176
     1
 40
1.0
176
     1
 90
        0
176
     1
 62
    18
420
        0
176
     1
 90
       50
176
     1
 90
        3
176
     1
 62
     5
420
      255
176
     1
290
     0
176
     1
 90
       50
176
     1
 90
       50
176
     1
 90
       50
176
     1
290
     0
176
     1
 90
       50
176
     1
 62
   256
176
     0
 40
1.0
176
     0
 90
        2
176
     1
  1
strokes_ogs.tif
176
     1
290
     0
176
     1
 40
1.0
176
     1
 40
1.0
176
     1
1001
ACAD
1000
AcDbSavedByObjectVersion
1070
     0
  0
VISUALSTYLE
  5
47F
102
{ACAD_REACTORS
330
46F
102
}
330
46F
100
AcDbVisualStyle
  2
ColorChange
 70
    16
177
     3
291
     1
 70
    58
 90
        2
176
     1
 90
        2
176
     1
 90
        3
176
     1
 90
        0
176
     1
 40
0.6
176
     1
 40
30.0
176
     1
 62
     8
420
  8421504
176
     1
 90
        1
176
     1
 90
        4
176
     1
 62
     7
176
     1
 62
   257
176
     1
 90
        1
176
     1
 90
        1
176
     1
 40
1.0
176
     1
 90
        8
176
     1
 62
     8
420
  8421504
176
     1
 40
1.0
176
     1
 90
        1
176
     1
 90
        6
176
     1
 90
        2
176
     1
 62
     7
176
     1
 90
        5
176
     1
 90
        0
176
     1
 90
        0
176
     1
290
     0
176
     1
 90
        1
176
     1
 40
0.0
176
     1
 90
        0
176
     1
290
     0
176
     1
290
     1
176
     1
290
     1
176
     1
290
     0
176
     1
290
     0
176
     1
290
     0
176
     1
290
     0
176
     1
290
     0
176
     1
290
     0
176
     1
 90
       50
176
     1
 40
0.0
176
     1
 40
1.0
176
     1
 90
        0
176
     1
 62
    18
420
        0
176
     1
 90
       50
176
     1
 90
        3
176
     1
 62
     5
420
      255
176
     1
290
     0
176
     1
 90
       50
176
     1
 90
       50
176
     1
 90
       50
176
     1
290
     0
176
     1
 90
       50
176
     1
 62
   256
176
     0
 40
1.0
176
     0
 90
        2
176
     1
  1
strokes_ogs.tif
176
     1
290
     0
176
     1
 40
1.0
176
     1
 40
1.0
176
     1
1001
ACAD
1000
AcDbSavedByObjectVersion
1070
     0
  0
VISUALSTYLE
  5
478
102
{ACAD_REACTORS
330
46F
102
}
330
46F
100
AcDbVisualStyle
  2
Conceptual
 70
     9
177
     3
291
     0
 70
    58
 90
        3
176
     1
 90
        2
176
     1
 90
        0
176
     1
 90
        0
176
     1
 40
0.6
176
     1
 40
30.0
176
     1
 62
     7
420
 16777215
176
     1
 90
        2
176
     1
 90
        2
176
     1
 62
     7
176
     1
 62
   257
176
     1
 90
        1
176
     1
 90
        1
176
     1
 40
179.0
176
     1
 90
        8
176
     1
 62
     7
176
     1
 40
1.0
176
     1
 90
        1
176
     1
 90
        6
176
     1
 90
        2
176
     1
 62
     7
176
     1
 90
        3
176
     1
 90
        0
176
     1
 90
        0
176
     1
290
     0
176
     1
 90
        1
176
     1
 40
0.0
176
     1
 90
        0
176
     1
290
     0
176
     1
290
     1
176
     1
290
     1
176
     1
290
     0
176
     1
290
     0
176
     1
290
     0
176
     1
290
     0
176
     1
290
     0
176
     1
290
     0
176
     1
 90
       50
176
     1
 40
0.0
176
     1
 40
1.0
176
     1
 90
        0
176
     1
 62
    18
420
        0
176
     1
 90
       50
176
     1
 90
        3
176
     1
 62
     5
420
      255
176
     1
290
     0
176
     1
 90
       50
176
     1
 90
       50
176
     1
 90
       50
176
     1
290
     0
176
     1
 90
       50
176
     1
 62
   256
176
     0
 40
1.0
176
     0
 90
        2
176
     1
  1
strokes_ogs.tif
176
     1
290
     0
176
     1
 40
1.0
176
     1
 40
1.0
176
     1
1001
ACAD
1000
AcDbSavedByObjectVersion
1070
     0
  0
VISUALSTYLE
  5
47A
102
{ACAD_REACTORS
330
46F
102
}
330
46F
100
AcDbVisualStyle
  2
Dim
 70
    11
177
     3
291
     1
 70
    58
 90
        2
176
     1
 90
        2
176
     1
 90
        0
176
     1
 90
        0
176
     1
 40
0.6
176
     1
 40
30.0
176
     1
 62
     7
420
 16777215
176
     1
 90
        1
176
     1
 90
        4
176
     1
 62
     7
176
     1
 62
   257
176
     1
 90
        1
176
     1
 90
        1
176
     1
 40
1.0
176
     1
 90
        8
176
     1
 62
     7
176
     1
 40
1.0
176
     1
 90
        1
176
     1
 90
        6
176
     1
 90
        2
176
     1
 62
     7
176
     1
 90
        5
176
     1
 90
        0
176
     1
 90
        0
176
     1
290
     0
176
     1
 90
        1
176
     1
 40
-50.0
176
     1
 90
        0
176
     1
290
     0
176
     1
290
     1
176
     1
290
     1
176
     1
290
     0
176
     1
290
     0
176
     1
290
     0
176
     1
290
     0
176
     1
290
     0
176
     1
290
     0
176
     1
 90
       50
176
     1
 40
0.0
176
     1
 40
1.0
176
     1
 90
        0
176
     1
 62
    18
420
        0
176
     1
 90
       50
176
     1
 90
        3
176
     1
 62
     5
420
      255
176
     1
290
     0
176
     1
 90
       50
176
     1
 90
       50
176
     1
 90
       50
176
     1
290
     0
176
     1
 90
       50
176
     1
 62
   256
176
     0
 40
1.0
176
     0
 90
        2
176
     1
  1
strokes_ogs.tif
176
     1
290
     0
176
     1
 40
1.0
176
     1
 40
1.0
176
     1
1001
ACAD
1000
AcDbSavedByObjectVersion
1070
     0
  0
VISUALSTYLE
  5
482
102
{ACAD_REACTORS
330
46F
102
}
330
46F
100
AcDbVisualStyle
  2
EdgeColorOff
 70
    22
177
     3
291
     1
 70
    58
 90
        2
176
     0
 90
        2
176
     0
 90
        0
176
     0
 90
        0
176
     0
 40
0.6
176
     0
 40
30.0
176
     0
 62
     7
420
 16777215
176
     0
 90
        1
176
     0
 90
        4
176
     0
 62
     7
176
     0
 62
   257
176
     0
 90
        1
176
     0
 90
        1
176
     0
 40
1.0
176
     0
 90
        8
176
     2
 62
     7
176
     0
 40
1.0
176
     0
 90
        1
176
     0
 90
        6
176
     0
 90
        2
176
     0
 62
     7
176
     0
 90
        5
176
     0
 90
        0
176
     0
 90
        0
176
     0
290
     0
176
     0
 90
        1
176
     0
 40
0.0
176
     0
 90
        0
176
     0
290
     0
176
     1
290
     1
176
     1
290
     1
176
     1
290
     0
176
     1
290
     0
176
     1
290
     0
176
     1
290
     0
176
     1
290
     0
176
     1
290
     0
176
     1
 90
       50
176
     1
 40
0.0
176
     1
 40
1.0
176
     1
 90
        0
176
     1
 62
    18
420
        0
176
     1
 90
       50
176
     1
 90
        3
176
     1
 62
     5
420
      255
176
     1
290
     0
176
     1
 90
       50
176
     1
 90
       50
176
     1
 90
       50
176
     1
290
     0
176
     1
 90
       50
176
     1
 62
   256
176
     0
 40
1.0
176
     0
 90
        2
176
     1
  1
strokes_ogs.tif
176
     1
290
     0
176
     1
 40
1.0
176
     1
 40
1.0
176
     1
1001
ACAD
1000
AcDbSavedByObjectVersion
1070
     0
  0
VISUALSTYLE
  5
47E
102
{ACAD_REACTORS
330
46F
102
}
330
46F
100
AcDbVisualStyle
  2
Facepattern
 70
    15
177
     3
291
     1
 70
    58
 90
        2
176
     1
 90
        2
176
     1
 90
        0
176
     1
 90
        0
176
     1
 40
0.6
176
     1
 40
30.0
176
     1
 62
     7
420
 16777215
176
     1
 90
        1
176
     1
 90
        4
176
     1
 62
     7
176
     1
 62
   257
176
     1
 90
        1
176
     1
 90
        1
176
     1
 40
1.0
176
     1
 90
        8
176
     1
 62
     7
176
     1
 40
1.0
176
     1
 90
        1
176
     1
 90
        6
176
     1
 90
        2
176
     1
 62
     7
176
     1
 90
        5
176
     1
 90
        0
176
     1
 90
        0
176
     1
290
     0
176
     1
 90
        1
176
     1
 40
0.0
176
     1
 90
        0
176
     1
290
     0
176
     1
290
     1
176
     1
290
     1
176
     1
290
     0
176
     1
290
     0
176
     1
290
     0
176
     1
290
     0
176
     1
290
     0
176
     1
290
     0
176
     1
 90
       50
176
     1
 40
0.0
176
     1
 40
1.0
176
     1
 90
        0
176
     1
 62
    18
420
        0
176
     1
 90
       50
176
     1
 90
        3
176
     1
 62
     5
420
      255
176
     1
290
     0
176
     1
 90
       50
176
     1
 90
       50
176
     1
 90
       50
176
     1
290
     0
176
     1
 90
       50
176
     1
 62
   256
176
     0
 40
1.0
176
     0
 90
        2
176
     1
  1
strokes_ogs.tif
176
     1
290
     0
176
     1
 40
1.0
176
     1
 40
1.0
176
     1
1001
ACAD
1000
AcDbSavedByObjectVersion
1070
     0
  0
VISUALSTYLE
  5
470
102
{ACAD_REACTORS
330
46F
102
}
330
46F
100
AcDbVisualStyle
  2
Flat
 70
     0
177
     3
291
     1
 70
    58
 90
        2
176
     1
 90
        1
176
     1
 90
        1
176
     1
 90
        2
176
     1
 40
0.6
176
     1
 40
30.0
176
     1
 62
     7
420
 16777215
176
     1
 90
        0
176
     1
 90
        4
176
     1
 62
     7
176
     1
 62
   257
176
     1
 90
        1
176
     1
 90
        1
176
     1
 40
1.0
176
     1
 90
        8
176
     1
 62
     7
176
     1
 40
1.0
176
     1
 90
        1
176
     1
 90
        6
176
     1
 90
        2
176
     1
 62
     7
176
     1
 90
        5
176
     1
 90
        0
176
     1
 90
        0
176
     1
290
     0
176
     1
 90
       13
176
     1
 40
0.0
176
     1
 90
        0
176
     1
290
     0
176
     1
290
     1
176
     1
290
     1
176
     1
290
     0
176
     1
290
     0
176
     1
290
     0
176
     1
290
     0
176
     1
290
     0
176
     1
290
     0
176
     1
 90
       50
176
     1
 40
0.0
176
     1
 40
1.0
176
     1
 90
        0
176
     1
 62
    18
420
        0
176
     1
 90
       50
176
     1
 90
        3
176
     1
 62
     5
420
      255
176
     1
290
     0
176
     1
 90
       50
176
     1
 90
       50
176
     1
 90
       50
176
     1
290
     0
176
     1
 90
       50
176
     1
 62
   256
176
     0
 40
1.0
176
     0
 90
        2
176
     1
  1
strokes_ogs.tif
176
     1
290
     0
176
     1
 40
1.0
176
     1
 40
1.0
176
     1
1001
ACAD
1000
AcDbSavedByObjectVersion
1070
     0
  0
VISUALSTYLE
  5
471
102
{ACAD_REACTORS
330
46F
102
}
330
46F
100
AcDbVisualStyle
  2
FlatWithEdges
 70
     1
177
     3
291
     1
 70
    58
 90
        2
176
     1
 90
        1
176
     1
 90
        1
176
     1
 90
        2
176
     1
 40
0.6
176
     1
 40
30.0
176
     1
 62
     7
420
 16777215
176
     1
 90
        1
176
     1
 90
        4
176
     1
 62
     7
176
     1
 62
   257
176
     1
 90
        1
176
     1
 90
        1
176
     1
 40
1.0
176
     1
 90
        0
176
     1
 62
   257
176
     1
 40
1.0
176
     1
 90
        1
176
     1
 90
        6
176
     1
 90
        2
176
     1
 62
     7
176
     1
 90
        5
176
     1
 90
        0
176
     1
 90
        0
176
     1
290
     0
176
     1
 90
       13
176
     1
 40
0.0
176
     1
 90
        0
176
     1
290
     0
176
     1
290
     1
176
     1
290
     1
176
     1
290
     0
176
     1
290
     0
176
     1
290
     0
176
     1
290
     0
176
     1
290
     0
176
     1
290
     0
176
     1
 90
       50
176
     1
 40
0.0
176
     1
 40
1.0
176
     1
 90
        0
176
     1
 62
    18
420
        0
176
     1
 90
       50
176
     1
 90
        3
176
     1
 62
     5
420
      255
176
     1
290
     0
176
     1
 90
       50
176
     1
 90
       50
176
     1
 90
       50
176
     1
290
     0
176
     1
 90
       50
176
     1
 62
   256
176
     0
 40
1.0
176
     0
 90
        2
176
     1
  1
strokes_ogs.tif
176
     1
290
     0
176
     1
 40
1.0
176
     1
 40
1.0
176
     1
1001
ACAD
1000
AcDbSavedByObjectVersion
1070
     0
  0
VISUALSTYLE
  5
472
102
{ACAD_REACTORS
330
46F
102
}
330
46F
100
AcDbVisualStyle
  2
Gouraud
 70
     2
177
     3
291
     1
 70
    58
 90
        2
176
     1
 90
        2
176
     1
 90
        1
176
     1
 90
        2
176
     1
 40
0.6
176
     1
 40
30.0
176
     1
 62
     7
420
 16777215
176
     1
 90
        0
176
     1
 90
        4
176
     1
 62
     7
176
     1
 62
   257
176
     1
 90
        1
176
     1
 90
        1
176
     1
 40
1.0
176
     1
 90
        0
176
     1
 62
     7
176
     1
 40
1.0
176
     1
 90
        1
176
     1
 90
        6
176
     1
 90
        2
176
     1
 62
     7
176
     1
 90
        5
176
     1
 90
        0
176
     1
 90
        0
176
     1
290
     0
176
     1
 90
       13
176
     1
 40
0.0
176
     1
 90
        0
176
     1
290
     0
176
     1
290
     1
176
     1
290
     1
176
     1
290
     0
176
     1
290
     0
176
     1
290
     0
176
     1
290
     0
176
     1
290
     0
176
     1
290
     0
176
     1
 90
       50
176
     1
 40
0.0
176
     1
 40
1.0
176
     1
 90
        0
176
     1
 62
    18
420
        0
176
     1
 90
       50
176
     1
 90
        3
176
     1
 62
     5
420
      255
176
     1
290
     0
176
     1
 90
       50
176
     1
 90
       50
176
     1
 90
       50
176
     1
290
     0
176
     1
 90
       50
176
     1
 62
   256
176
     0
 40
1.0
176
     0
 90
        2
176
     1
  1
strokes_ogs.tif
176
     1
290
     0
176
     1
 40
1.0
176
     1
 40
1.0
176
     1
1001
ACAD
1000
AcDbSavedByObjectVersion
1070
     0
  0
VISUALSTYLE
  5
473
102
{ACAD_REACTORS
330
46F
102
}
330
46F
100
AcDbVisualStyle
  2
GouraudWithEdges
 70
     3
177
     3
291
     1
 70
    58
 90
        2
176
     1
 90
        2
176
     1
 90
        1
176
     1
 90
        2
176
     1
 40
0.6
176
     1
 40
30.0
176
     1
 62
     7
420
 16777215
176
     1
 90
        1
176
     1
 90
        4
176
     1
 62
     7
176
     1
 62
   257
176
     1
 90
        1
176
     1
 90
        1
176
     1
 40
1.0
176
     1
 90
        0
176
     1
 62
   257
176
     1
 40
1.0
176
     1
 90
        1
176
     1
 90
        6
176
     1
 90
        2
176
     1
 62
     7
176
     1
 90
        5
176
     1
 90
        0
176
     1
 90
        0
176
     1
290
     0
176
     1
 90
       13
176
     1
 40
0.0
176
     1
 90
        0
176
     1
290
     0
176
     1
290
     1
176
     1
290
     1
176
     1
290
     0
176
     1
290
     0
176
     1
290
     0
176
     1
290
     0
176
     1
290
     0
176
     1
290
     0
176
     1
 90
       50
176
     1
 40
0.0
176
     1
 40
1.0
176
     1
 90
        0
176
     1
 62
    18
420
        0
176
     1
 90
       50
176
     1
 90
        3
176
     1
 62
     5
420
      255
176
     1
290
     0
176
     1
 90
       50
176
     1
 90
       50
176
     1
 90
       50
176
     1
290
     0
176
     1
 90
       50
176
     1
 62
   256
176
     0
 40
1.0
176
     0
 90
        2
176
     1
  1
strokes_ogs.tif
176
     1
290
     0
176
     1
 40
1.0
176
     1
 40
1.0
176
     1
1001
ACAD
1000
AcDbSavedByObjectVersion
1070
     0
  0
VISUALSTYLE
  5
4DC
102
{ACAD_REACTORS
330
46F
102
}
330
46F
100
AcDbVisualStyle
  2
Hidden
 70
     6
177
     3
291
     0
 70
    58
 90
        1
176
     1
 90
        2
176
     1
 90
        2
176
     1
 90
        0
176
     1
 40
0.6
176
     1
 40
30.0
176
     1
 62
     7
420
 16777215
176
     1
 90
        2
176
     1
 90
        2
176
     1
 62
     7
176
     1
 62
   257
176
     1
 90
        2
176
     1
 90
        1
176
     1
 40
40.0
176
     1
 90
        0
176
     1
 62
   257
176
     1
 40
1.0
176
     1
 90
        1
176
     1
 90
        6
176
     1
 90
        2
176
     1
 62
     7
176
     1
 90
        3
176
     1
 90
        0
176
     1
 90
        0
176
     1
290
     0
176
     1
 90
        1
176
     1
 40
0.0
176
     1
 90
        0
176
     1
290
     0
176
     1
290
     1
176
     1
290
     1
176
     1
290
     0
176
     1
290
     0
176
     1
290
     0
176
     1
290
     0
176
     1
290
     0
176
     1
290
     0
176
     1
 90
       50
176
     1
 40
0.0
176
     1
 40
1.0
176
     1
 90
        0
176
     1
 62
    18
420
        0
176
     1
 90
       50
176
     1
 90
        3
176
     1
 62
     5
420
      255
176
     1
290
     0
176
     1
 90
       50
176
     1
 90
       50
176
     1
 90
       50
176
     1
290
     0
176
     1
 90
       50
176
     1
 62
   256
176
     0
 40
1.0
176
     0
 90
        2
176
     1
  1
strokes_ogs.tif
176
     1
290
     0
176
     1
 40
1.0
176
     1
 40
1.0
176
     1
1001
ACAD
1000
AcDbSavedByObjectVersion
1070
     0
  0
VISUALSTYLE
  5
480
102
{ACAD_REACTORS
330
46F
102
}
330
46F
100
AcDbVisualStyle
  2
JitterOff
 70
    20
177
     3
291
     1
 70
    58
 90
        2
176
     0
 90
        2
176
     0
 90
        0
176
     0
 90
        0
176
     0
 40
0.6
176
     0
 40
30.0
176
     0
 62
     7
420
 16777215
176
     0
 90
        1
176
     0
 90
        4
176
     0
 62
     7
176
     0
 62
   257
176
     0
 90
        1
176
     0
 90
        1
176
     0
 40
1.0
176
     0
 90
       10
176
     2
 62
     7
176
     0
 40
1.0
176
     0
 90
        1
176
     0
 90
        6
176
     0
 90
        2
176
     0
 62
     7
176
     0
 90
        5
176
     0
 90
        0
176
     0
 90
        0
176
     0
290
     0
176
     0
 90
        1
176
     0
 40
0.0
176
     0
 90
        0
176
     0
290
     0
176
     1
290
     1
176
     1
290
     1
176
     1
290
     0
176
     1
290
     0
176
     1
290
     0
176
     1
290
     0
176
     1
290
     0
176
     1
290
     0
176
     1
 90
       50
176
     1
 40
0.0
176
     1
 40
1.0
176
     1
 90
        0
176
     1
 62
    18
420
        0
176
     1
 90
       50
176
     1
 90
        3
176
     1
 62
     5
420
      255
176
     1
290
     0
176
     1
 90
       50
176
     1
 90
       50
176
     1
 90
       50
176
     1
290
     0
176
     1
 90
       50
176
     1
 62
   256
176
     0
 40
1.0
176
     0
 90
        2
176
     1
  1
strokes_ogs.tif
176
     1
290
     0
176
     1
 40
1.0
176
     1
 40
1.0
176
     1
1001
ACAD
1000
AcDbSavedByObjectVersion
1070
     0
  0
VISUALSTYLE
  5
47D
102
{ACAD_REACTORS
330
46F
102
}
330
46F
100
AcDbVisualStyle
  2
Linepattern
 70
    14
177
     3
291
     1
 70
    58
 90
        2
176
     1
 90
        2
176
     1
 90
        0
176
     1
 90
        0
176
     1
 40
0.6
176
     1
 40
30.0
176
     1
 62
     7
420
 16777215
176
     1
 90
        1
176
     1
 90
        4
176
     1
 62
     7
176
     1
 62
   257
176
     1
 90
        7
176
     1
 90
        7
176
     1
 40
1.0
176
     1
 90
        8
176
     1
 62
     7
176
     1
 40
1.0
176
     1
 90
        1
176
     1
 90
        6
176
     1
 90
        2
176
     1
 62
     7
176
     1
 90
        5
176
     1
 90
        0
176
     1
 90
        0
176
     1
290
     0
176
     1
 90
        1
176
     1
 40
0.0
176
     1
 90
        0
176
     1
290
     0
176
     1
290
     1
176
     1
290
     1
176
     1
290
     0
176
     1
290
     0
176
     1
290
     0
176
     1
290
     0
176
     1
290
     0
176
     1
290
     0
176
     1
 90
       50
176
     1
 40
0.0
176
     1
 40
1.0
176
     1
 90
        0
176
     1
 62
    18
420
        0
176
     1
 90
       50
176
     1
 90
        3
176
     1
 62
     5
420
      255
176
     1
290
     0
176
     1
 90
       50
176
     1
 90
       50
176
     1
 90
       50
176
     1
290
     0
176
     1
 90
       50
176
     1
 62
   256
176
     0
 40
1.0
176
     0
 90
        2
176
     1
  1
strokes_ogs.tif
176
     1
290
     0
176
     1
 40
1.0
176
     1
 40
1.0
176
     1
1001
ACAD
1000
AcDbSavedByObjectVersion
1070
     0
  0
VISUALSTYLE
  5
481
102
{ACAD_REACTORS
330
46F
102
}
330
46F
100
AcDbVisualStyle
  2
OverhangOff
 70
    21
177
     3
291
     1
 70
    58
 90
        2
176
     0
 90
        2
176
     0
 90
        0
176
     0
 90
        0
176
     0
 40
0.6
176
     0
 40
30.0
176
     0
 62
     7
420
 16777215
176
     0
 90
        1
176
     0
 90
        4
176
     0
 62
     7
176
     0
 62
   257
176
     0
 90
        1
176
     0
 90
        1
176
     0
 40
1.0
176
     0
 90
        9
176
     2
 62
     7
176
     0
 40
1.0
176
     0
 90
        1
176
     0
 90
        6
176
     0
 90
        2
176
     0
 62
     7
176
     0
 90
        5
176
     0
 90
        0
176
     0
 90
        0
176
     0
290
     0
176
     0
 90
        1
176
     0
 40
0.0
176
     0
 90
        0
176
     0
290
     0
176
     1
290
     1
176
     1
290
     1
176
     1
290
     0
176
     1
290
     0
176
     1
290
     0
176
     1
290
     0
176
     1
290
     0
176
     1
290
     0
176
     1
 90
       50
176
     1
 40
0.0
176
     1
 40
1.0
176
     1
 90
        0
176
     1
 62
    18
420
        0
176
     1
 90
       50
176
     1
 90
        3
176
     1
 62
     5
420
      255
176
     1
290
     0
176
     1
 90
       50
176
     1
 90
       50
176
     1
 90
       50
176
     1
290
     0
176
     1
 90
       50
176
     1
 62
   256
176
     0
 40
1.0
176
     0
 90
        2
176
     1
  1
strokes_ogs.tif
176
     1
290
     0
176
     1
 40
1.0
176
     1
 40
1.0
176
     1
1001
ACAD
1000
AcDbSavedByObjectVersion
1070
     0
  0
VISUALSTYLE
  5
479
102
{ACAD_REACTORS
330
46F
102
}
330
46F
100
AcDbVisualStyle
  2
Realistic
 70
     8
177
     3
291
     0
 70
    58
 90
        2
176
     1
 90
        2
176
     1
 90
        0
176
     1
 90
        0
176
     1
 40
0.6
176
     1
 40
30.0
176
     1
 62
     7
420
 16777215
176
     1
 90
        1
176
     1
 90
        0
176
     1
 62
     7
176
     1
 62
   257
176
     1
 90
        1
176
     1
 90
        1
176
     1
 40
1.0
176
     1
 90
        8
176
     1
 62
     8
420
  7895160
176
     1
 40
1.0
176
     1
 90
        1
176
     1
 90
        6
176
     1
 90
        2
176
     1
 62
     7
176
     1
 90
        5
176
     1
 90
        0
176
     1
 90
        0
176
     1
290
     0
176
     1
 90
       13
176
     1
 40
0.0
176
     1
 90
        0
176
     1
290
     0
176
     1
290
     1
176
     1
290
     1
176
     1
290
     0
176
     1
290
     0
176
     1
290
     0
176
     1
290
     0
176
     1
290
     0
176
     1
290
     0
176
     1
 90
       50
176
     1
 40
0.0
176
     1
 40
1.0
176
     1
 90
        0
176
     1
 62
    18
420
        0
176
     1
 90
       50
176
     1
 90
        3
176
     1
 62
     5
420
      255
176
     1
290
     0
176
     1
 90
       50
176
     1
 90
       50
176
     1
 90
       50
176
     1
290
     0
176
     1
 90
       50
176
     1
 62
   256
176
     0
 40
1.0
176
     0
 90
        2
176
     1
  1
strokes_ogs.tif
176
     1
290
     0
176
     1
 40
1.0
176
     1
 40
1.0
176
     1
1001
ACAD
1000
AcDbSavedByObjectVersion
1070
     0
  0
VISUALSTYLE
  5
4E1
102
{ACAD_REACTORS
330
46F
102
}
330
46F
100
AcDbVisualStyle
  2
Shaded
 70
    27
177
     3
291
     0
 70
    58
 90
        2
176
     1
 90
        2
176
     1
 90
        1
176
     1
 90
        2
176
     1
 40
0.6
176
     1
 40
30.0
176
     1
 62
     7
420
 16777215
176
     1
 90
        0
176
     1
 90
        4
176
     1
 62
     7
176
     1
 62
   257
176
     1
 90
        1
176
     1
 90
        1
176
     1
 40
1.0
176
     1
 90
        8
176
     1
 62
   257
176
     1
 40
1.0
176
     1
 90
        1
176
     1
 90
        6
176
     1
 90
        2
176
     1
 62
     8
420
  7895160
176
     1
 90
        3
176
     1
 90
        0
176
     1
 90
        0
176
     1
290
     0
176
     1
 90
        5
176
     1
 40
0.0
176
     1
 90
        0
176
     1
290
     0
176
     1
290
     1
176
     1
290
     1
176
     1
290
     0
176
     1
290
     0
176
     1
290
     0
176
     1
290
     0
176
     1
290
     0
176
     1
290
     0
176
     1
 90
       50
176
     1
 40
0.0
176
     1
 40
1.0
176
     1
 90
        0
176
     1
 62
    18
420
        0
176
     1
 90
       50
176
     1
 90
        3
176
     1
 62
     5
420
      255
176
     1
290
     0
176
     1
 90
       50
176
     1
 90
       50
176
     1
 90
       50
176
     1
290
     0
176
     1
 90
       50
176
     1
 62
   256
176
     0
 40
1.0
176
     0
 90
        2
176
     1
  1
strokes_ogs.tif
176
     1
290
     0
176
     1
 40
1.0
176
     1
 40
1.0
176
     1
1001
ACAD
1000
AcDbSavedByObjectVersion
1070
     0
  0
VISUALSTYLE
  5
4E0
102
{ACAD_REACTORS
330
46F
102
}
330
46F
100
AcDbVisualStyle
  2
Shaded with edges
 70
    26
177
     3
291
     0
 70
    58
 90
        2
176
     1
 90
        2
176
     1
 90
        1
176
     1
 90
        2
176
     1
 40
0.6
176
     1
 40
30.0
176
     1
 62
     7
420
 16777215
176
     1
 90
        1
176
     1
 90
        2
176
     1
 62
     7
176
     1
 62
   257
176
     1
 90
        2
176
     1
 90
        1
176
     1
 40
1.0
176
     1
 90
        8
176
     1
 62
   257
176
     1
 40
1.0
176
     1
 90
        1
176
     1
 90
        6
176
     1
 90
        2
176
     1
 62
     7
176
     1
 90
        3
176
     1
 90
        0
176
     1
 90
        0
176
     1
290
     0
176
     1
 90
        5
176
     1
 40
0.0
176
     1
 90
        0
176
     1
290
     0
176
     1
290
     1
176
     1
290
     1
176
     1
290
     0
176
     1
290
     0
176
     1
290
     0
176
     1
290
     0
176
     1
290
     0
176
     1
290
     0
176
     1
 90
       50
176
     1
 40
0.0
176
     1
 40
1.0
176
     1
 90
        0
176
     1
 62
    18
420
        0
176
     1
 90
       50
176
     1
 90
        3
176
     1
 62
     5
420
      255
176
     1
290
     0
176
     1
 90
       50
176
     1
 90
       50
176
     1
 90
       50
176
     1
290
     0
176
     1
 90
       50
176
     1
 62
   256
176
     0
 40
1.0
176
     0
 90
        2
176
     1
  1
strokes_ogs.tif
176
     1
290
     0
176
     1
 40
1.0
176
     1
 40
1.0
176
     1
1001
ACAD
1000
AcDbSavedByObjectVersion
1070
     0
  0
VISUALSTYLE
  5
4DD
102
{ACAD_REACTORS
330
46F
102
}
330
46F
100
AcDbVisualStyle
  2
Shades of Gray
 70
    23
177
     3
291
     0
 70
    58
 90
        2
176
     1
 90
        2
176
     1
 90
        3
176
     1
 90
        0
176
     1
 40
0.6
176
     1
 40
30.0
176
     1
 62
     7
420
 16777215
176
     1
 90
        2
176
     1
 90
        2
176
     1
 62
     7
176
     1
 62
     7
176
     1
 90
        1
176
     1
 90
        1
176
     1
 40
40.0
176
     1
 90
        8
176
     1
 62
     7
176
     1
 40
1.0
176
     1
 90
        1
176
     1
 90
        6
176
     1
 90
        2
176
     1
 62
     7
176
     1
 90
        3
176
     1
 90
        0
176
     1
 90
        0
176
     1
290
     0
176
     1
 90
        1
176
     1
 40
0.0
176
     1
 90
        0
176
     1
290
     0
176
     1
290
     1
176
     1
290
     1
176
     1
290
     0
176
     1
290
     0
176
     1
290
     0
176
     1
290
     0
176
     1
290
     0
176
     1
290
     0
176
     1
 90
       50
176
     1
 40
0.0
176
     1
 40
1.0
176
     1
 90
        0
176
     1
 62
    18
420
        0
176
     1
 90
       50
176
     1
 90
        3
176
     1
 62
     5
420
      255
176
     1
290
     0
176
     1
 90
       50
176
     1
 90
       50
176
     1
 90
       50
176
     1
290
     0
176
     1
 90
       50
176
     1
 62
   256
176
     0
 40
1.0
176
     0
 90
        2
176
     1
  1
strokes_ogs.tif
176
     1
290
     0
176
     1
 40
1.0
176
     1
 40
1.0
176
     1
1001
ACAD
1000
AcDbSavedByObjectVersion
1070
     0
  0
VISUALSTYLE
  5
4DE
102
{ACAD_REACTORS
330
46F
102
}
330
46F
100
AcDbVisualStyle
  2
Sketchy
 70
    24
177
     3
291
     0
 70
    58
 90
        1
176
     1
 90
        2
176
     1
 90
        2
176
     1
 90
        0
176
     1
 40
0.6
176
     1
 40
30.0
176
     1
 62
     7
420
 16777215
176
     1
 90
        2
176
     1
 90
        2
176
     1
 62
     7
176
     1
 62
     7
176
     1
 90
        1
176
     1
 90
        1
176
     1
 40
40.0
176
     1
 90
       11
176
     1
 62
     7
176
     1
 40
1.0
176
     1
 90
        1
176
     1
 90
        6
176
     1
 90
        2
176
     1
 62
     7
176
     1
 90
        6
176
     1
 90
        0
176
     1
 90
        0
176
     1
290
     0
176
     1
 90
        1
176
     1
 40
0.0
176
     1
 90
        0
176
     1
290
     0
176
     1
290
     1
176
     1
290
     1
176
     1
290
     0
176
     1
290
     0
176
     1
290
     0
176
     1
290
     0
176
     1
290
     0
176
     1
290
     0
176
     1
 90
       50
176
     1
 40
0.0
176
     1
 40
1.0
176
     1
 90
        0
176
     1
 62
    18
420
        0
176
     1
 90
       50
176
     1
 90
        3
176
     1
 62
     5
420
      255
176
     1
290
     0
176
     1
 90
       50
176
     1
 90
       50
176
     1
 90
       50
176
     1
290
     0
176
     1
 90
       50
176
     1
 62
   256
176
     0
 40
1.0
176
     0
 90
        2
176
     1
  1
strokes_ogs.tif
176
     1
290
     0
176
     1
 40
1.0
176
     1
 40
1.0
176
     1
1001
ACAD
1000
AcDbSavedByObjectVersion
1070
     0
  0
VISUALSTYLE
  5
47C
102
{ACAD_REACTORS
330
46F
102
}
330
46F
100
AcDbVisualStyle
  2
Thicken
 70
    13
177
     3
291
     1
 70
    58
 90
        2
176
     1
 90
        2
176
     1
 90
        0
176
     1
 90
        0
176
     1
 40
0.6
176
     1
 40
30.0
176
     1
 62
     7
420
 16777215
176
     1
 90
        1
176
     1
 90
        4
176
     1
 62
     7
176
     1
 62
   257
176
     1
 90
        1
176
     1
 90
        1
176
     1
 40
1.0
176
     1
 90
       12
176
     1
 62
     7
176
     1
 40
1.0
176
     1
 90
        1
176
     1
 90
        6
176
     1
 90
        2
176
     1
 62
     7
176
     1
 90
        5
176
     1
 90
        0
176
     1
 90
        0
176
     1
290
     0
176
     1
 90
        1
176
     1
 40
0.0
176
     1
 90
        0
176
     1
290
     0
176
     1
290
     1
176
     1
290
     1
176
     1
290
     0
176
     1
290
     0
176
     1
290
     0
176
     1
290
     0
176
     1
290
     0
176
     1
290
     0
176
     1
 90
       50
176
     1
 40
0.0
176
     1
 40
1.0
176
     1
 90
        0
176
     1
 62
    18
420
        0
176
     1
 90
       50
176
     1
 90
        3
176
     1
 62
     5
420
      255
176
     1
290
     0
176
     1
 90
       50
176
     1
 90
       50
176
     1
 90
       50
176
     1
290
     0
176
     1
 90
       50
176
     1
 62
   256
176
     0
 40
1.0
176
     0
 90
        2
176
     1
  1
strokes_ogs.tif
176
     1
290
     0
176
     1
 40
1.0
176
     1
 40
1.0
176
     1
1001
ACAD
1000
AcDbSavedByObjectVersion
1070
     0
  0
VISUALSTYLE
  5
4DB
102
{ACAD_REACTORS
330
46F
102
}
330
46F
100
AcDbVisualStyle
  2
Wireframe
 70
     5
177
     3
291
     0
 70
    58
 90
        0
176
     1
 90
        2
176
     1
 90
        0
176
     1
 90
        0
176
     1
 40
0.6
176
     1
 40
30.0
176
     1
 62
     7
420
 16777215
176
     1
 90
        1
176
     1
 90
        4
176
     1
 62
     7
176
     1
 62
   257
176
     1
 90
        1
176
     1
 90
        1
176
     1
 40
1.0
176
     1
 90
        0
176
     1
 62
   257
176
     1
 40
1.0
176
     1
 90
        1
176
     1
 90
        6
176
     1
 90
        2
176
     1
 62
     7
176
     1
 90
        3
176
     1
 90
        0
176
     1
 90
        0
176
     1
290
     0
176
     1
 90
        1
176
     1
 40
0.0
176
     1
 90
        0
176
     1
290
     0
176
     1
290
     1
176
     1
290
     1
176
     1
290
     0
176
     1
290
     0
176
     1
290
     0
176
     1
290
     0
176
     1
290
     0
176
     1
290
     0
176
     1
 90
       50
176
     1
 40
0.0
176
     1
 40
1.0
176
     1
 90
        0
176
     1
 62
    18
420
        0
176
     1
 90
       50
176
     1
 90
        3
176
     1
 62
     5
420
      255
176
     1
290
     0
176
     1
 90
       50
176
     1
 90
       50
176
     1
 90
       50
176
     1
290
     0
176
     1
 90
       50
176
     1
 62
   256
176
     0
 40
1.0
176
     0
 90
        2
176
     1
  1
strokes_ogs.tif
176
     1
290
     0
176
     1
 40
1.0
176
     1
 40
1.0
176
     1
1001
ACAD
1000
AcDbSavedByObjectVersion
1070
     0
  0
VISUALSTYLE
  5
4DF
102
{ACAD_REACTORS
330
46F
102
}
330
46F
100
AcDbVisualStyle
  2
X-Ray
 70
    25
177
     3
291
     0
 70
    58
 90
        2
176
     1
 90
        2
176
     1
 90
        1
176
     1
 90
        1
176
     1
 40
0.5
176
     1
 40
30.0
176
     1
 62
     7
420
 16777215
176
     1
 90
        1
176
     1
 90
        0
176
     1
 62
     7
176
     1
 62
   257
176
     1
 90
        1
176
     1
 90
        1
176
     1
 40
1.0
176
     1
 90
        8
176
     1
 62
     7
176
     1
 40
1.0
176
     1
 90
        1
176
     1
 90
        6
176
     1
 90
        2
176
     1
 62
     7
176
     1
 90
        3
176
     1
 90
        0
176
     1
 90
        0
176
     1
290
     0
176
     1
 90
       13
176
     1
 40
0.0
176
     1
 90
        0
176
     1
290
     0
176
     1
290
     1
176
     1
290
     1
176
     1
290
     0
176
     1
290
     0
176
     1
290
     0
176
     1
290
     0
176
     1
290
     0
176
     1
290
     0
176
     1
 90
       50
176
     1
 40
0.0
176
     1
 40
1.0
176
     1
 90
        0
176
     1
 62
    18
420
        0
176
     1
 90
       50
176
     1
 90
        3
176
     1
 62
     5
420
      255
176
     1
290
     0
176
     1
 90
       50
176
     1
 90
       50
176
     1
 90
       50
176
     1
290
     0
176
     1
 90
       50
176
     1
 62
   256
176
     0
 40
1.0
176
     0
 90
        2
176
     1
  1
strokes_ogs.tif
176
     1
290
     0
176
     1
 40
1.0
176
     1
 40
1.0
176
     1
1001
ACAD
1000
AcDbSavedByObjectVersion
1070
     0
  0
DICTIONARYVAR
  5
4D8
102
{ACAD_REACTORS
330
4D5
102
}
330
4D5
100
DictionaryVariables
280
     0
  1
1:1
  0
DICTIONARYVAR
  5
4D7
102
{ACAD_REACTORS
330
4D5
102
}
330
4D5
100
DictionaryVariables
280
     0
  1
STANDARD
  0
DICTIONARYVAR
  5
4D6
102
{ACAD_REACTORS
330
4D5
102
}
330
4D5
100
DictionaryVariables
280
     0
  1
STANDARD
  0
DICTIONARYVAR
  5
611
102
{ACAD_REACTORS
330
4D5
102
}
330
4D5
100
DictionaryVariables
280
     0
  1
Imperial24
  0
DICTIONARYVAR
  5
612
102
{ACAD_REACTORS
330
4D5
102
}
330
4D5
100
DictionaryVariables
280
     0
  1
Imperial24
  0
DICTIONARY
  5
E23
102
{ACAD_REACTORS
330
E21
102
}
330
E21
100
AcDbDictionary
281
     1
  0
DICTIONARY
  5
E22
102
{ACAD_REACTORS
330
E21
102
}
330
E21
100
AcDbDictionary
281
     1
  3
1602044881472
350
E1C
  3
1602044881488
350
E1D
  3
1602044881504
350
E1E
  3
1602044881520
350
E1F
  3
1602044881536
350
E20
  0
DICTIONARY
  5
DE7
102
{ACAD_REACTORS
330
DE0
102
}
330
DE0
100
AcDbDictionary
281
     1
  0
XRECORD
  5
D43
102
{ACAD_REACTORS
330
D42
102
}
330
D42
100
AcDbXrecord
280
     1
330
9AA
330
9F2
330
7DD
330
7DE
330
7DF
  0
DICTIONARY
  5
E26
330
4E5
100
AcDbDictionary
280
     1
281
     1
  3
ACAD_XREC_ROUNDTRIP
360
E27
  0
DICTIONARY
  5
460
330
45F
100
AcDbDictionary
280
     1
281
     1
  3
BUMPTILE
360
462
  3
DIFFUSETILE
360
461
  3
OPACITYTILE
360
465
  3
REFLECTIONTILE
360
464
  3
REFRACTIONTILE
360
466
  3
SPECULARTILE
360
463
  0
DICTIONARY
  5
458
330
457
100
AcDbDictionary
280
     1
281
     1
  3
BUMPTILE
360
45A
  3
DIFFUSETILE
360
459
  3
OPACITYTILE
360
45D
  3
REFLECTIONTILE
360
45C
  3
REFRACTIONTILE
360
45E
  3
SPECULARTILE
360
45B
  0
DICTIONARY
  5
468
330
467
100
AcDbDictionary
280
     1
281
     1
  3
BUMPTILE
360
46A
  3
DIFFUSETILE
360
469
  3
OPACITYTILE
360
46D
  3
REFLECTIONTILE
360
46C
  3
REFRACTIONTILE
360
46E
  3
SPECULARTILE
360
46B
  0
DICTIONARY
  5
E24
330
4E3
100
AcDbDictionary
280
     1
281
     1
  3
ACAD_XREC_ROUNDTRIP
360
E25
  0
DICTIONARY
  5
4AB
330
485
100
AcDbDictionary
280
     1
281
     1
  3
ACAD_ROUNDTRIP_2008_TABLESTYLE_CELLSTYLEMAP
360
E1A
  0
XRECORD
  5
E1C
102
{ACAD_REACTORS
330
E22
102
}
330
E22
100
AcDbXrecord
280
     1
  1
AcDb_Thumbnail_Schema
102
{ATTRRECORD
341
E1D
  2
AcDbDs::TreatedAsObjectData
280
     1
291
     1
102
ATTRRECORD}
102
{ATTRRECORD
341
E1E
  2
AcDbDs::Legacy
280
     1
291
     1
102
ATTRRECORD}
  2
AcDbDs::ID
280
    10
 91
        8
102
{ATTRRECORD
341
E1F
  2
AcDs:Indexable
280
     1
291
     1
102
ATTRRECORD}
102
{ATTRRECORD
341
E20
  2
AcDbDs::HandleAttribute
280
     7
282
     1
102
ATTRRECORD}
  2
Thumbnail_Data
280
    15
 91
        0
  0
XRECORD
  5
E1D
102
{ACAD_REACTORS
330
E22
102
}
330
E22
100
AcDbXrecord
280
     1
  1
AcDbDs::TreatedAsObjectDataSchema
  2
AcDbDs::TreatedAsObjectData
280
     1
 91
        0
  0
XRECORD
  5
E1E
102
{ACAD_REACTORS
330
E22
102
}
330
E22
100
AcDbXrecord
280
     1
  1
AcDbDs::LegacySchema
  2
AcDbDs::Legacy
280
     1
 91
        0
  0
XRECORD
  5
E1F
102
{ACAD_REACTORS
330
E22
102
}
330
E22
100
AcDbXrecord
280
     1
  1
AcDbDs::IndexedPropertySchema
  2
AcDs:Indexable
280
     1
 91
        0
  0
XRECORD
  5
E20
102
{ACAD_REACTORS
330
E22
102
}
330
E22
100
AcDbXrecord
280
     1
  1
AcDbDs::HandleAttributeSchema
  2
AcDbDs::HandleAttribute
280
     7
 91
        1
284
     1
  0
XRECORD
  5
E27
102
{ACAD_REACTORS
330
E26
102
}
330
E26
100
AcDbXrecord
280
     1
102
DISPLAYNAME
  1
Imperial24
102
FLAGS
 90
        0
  0
XRECORD
  5
462
102
{ACAD_REACTORS
330
460
102
}
330
460
100
AcDbXrecord
280
     1
270
     1
271
     1
  0
XRECORD
  5
461
102
{ACAD_REACTORS
330
460
102
}
330
460
100
AcDbXrecord
280
     1
270
     1
271
     1
  0
XRECORD
  5
465
102
{ACAD_REACTORS
330
460
102
}
330
460
100
AcDbXrecord
280
     1
270
     1
271
     1
  0
XRECORD
  5
464
102
{ACAD_REACTORS
330
460
102
}
330
460
100
AcDbXrecord
280
     1
270
     1
271
     1
  0
XRECORD
  5
466
102
{ACAD_REACTORS
330
460
102
}
330
460
100
AcDbXrecord
280
     1
270
     1
271
     1
  0
XRECORD
  5
463
102
{ACAD_REACTORS
330
460
102
}
330
460
100
AcDbXrecord
280
     1
270
     1
271
     1
  0
XRECORD
  5
45A
102
{ACAD_REACTORS
330
458
102
}
330
458
100
AcDbXrecord
280
     1
270
     1
271
     1
  0
XRECORD
  5
459
102
{ACAD_REACTORS
330
458
102
}
330
458
100
AcDbXrecord
280
     1
270
     1
271
     1
  0
XRECORD
  5
45D
102
{ACAD_REACTORS
330
458
102
}
330
458
100
AcDbXrecord
280
     1
270
     1
271
     1
  0
XRECORD
  5
45C
102
{ACAD_REACTORS
330
458
102
}
330
458
100
AcDbXrecord
280
     1
270
     1
271
     1
  0
XRECORD
  5
45E
102
{ACAD_REACTORS
330
458
102
}
330
458
100
AcDbXrecord
280
     1
270
     1
271
     1
  0
XRECORD
  5
45B
102
{ACAD_REACTORS
330
458
102
}
330
458
100
AcDbXrecord
280
     1
270
     1
271
     1
  0
XRECORD
  5
46A
102
{ACAD_REACTORS
330
468
102
}
330
468
100
AcDbXrecord
280
     1
270
     1
271
     1
  0
XRECORD
  5
469
102
{ACAD_REACTORS
330
468
102
}
330
468
100
AcDbXrecord
280
     1
270
     1
271
     1
  0
XRECORD
  5
46D
102
{ACAD_REACTORS
330
468
102
}
330
468
100
AcDbXrecord
280
     1
270
     1
271
     1
  0
XRECORD
  5
46C
102
{ACAD_REACTORS
330
468
102
}
330
468
100
AcDbXrecord
280
     1
270
     1
271
     1
  0
XRECORD
  5
46E
102
{ACAD_REACTORS
330
468
102
}
330
468
100
AcDbXrecord
280
     1
270
     1
271
     1
  0
XRECORD
  5
46B
102
{ACAD_REACTORS
330
468
102
}
330
468
100
AcDbXrecord
280
     1
270
     1
271
     1
  0
XRECORD
  5
E25
102
{ACAD_REACTORS
330
E24
102
}
330
E24
100
AcDbXrecord
280
     1
102
DISPLAYNAME
  1
Imperial24
102
FLAGS
 90
        0
  0
CELLSTYLEMAP
  5
E1A
102
{ACAD_REACTORS
330
4AB
102
}
330
4AB
100
AcDbCellStyleMap
 90
        3
300
CELLSTYLE
  1
TABLEFORMAT_BEGIN
 90
        5
170
     1
 91
        0
 92
    32768
 62
   257
 93
        1
300
CONTENTFORMAT
  1
CONTENTFORMAT_BEGIN
 90
        0
 91
        0
 92
      512
 93
        0
300

 40
0.0
140
1.0
 94
        5
 62
     0
340
11
144
0.25
309
CONTENTFORMAT_END
171
     0
 94
        0
309
TABLEFORMAT_END
  1
CELLSTYLE_BEGIN
 90
        1
 91
        1
300
_TITLE
309
CELLSTYLE_END
300
CELLSTYLE
  1
TABLEFORMAT_BEGIN
 90
        5
170
     1
 91
        0
 92
        0
 62
   257
 93
        1
300
CONTENTFORMAT
  1
CONTENTFORMAT_BEGIN
 90
        0
 91
        0
 92
      512
 93
        0
300

 40
0.0
140
1.0
 94
        5
 62
     0
340
11
144
0.18
309
CONTENTFORMAT_END
171
     0
 94
        0
309
TABLEFORMAT_END
  1
CELLSTYLE_BEGIN
 90
        2
 91
        1
300
_HEADER
309
CELLSTYLE_END
300
CELLSTYLE
  1
TABLEFORMAT_BEGIN
 90
        5
170
     1
 91
        0
 92
        0
 62
   257
 93
        1
300
CONTENTFORMAT
  1
CONTENTFORMAT_BEGIN
 90
        0
 91
        0
 92
      512
 93
        0
300

 40
0.0
140
1.0
 94
        2
 62
     0
340
11
144
0.18
309
CONTENTFORMAT_END
171
     0
 94
        0
309
TABLEFORMAT_END
  1
CELLSTYLE_BEGIN
 90
        3
 91
        2
300
_DATA
309
CELLSTYLE_END
  0
ENDSEC
  0
SECTION
  2
ACDSDATA
 70
     2
 71
     8
  0
ACDSSCHEMA
 90
        0
  1
AcDb_Thumbnail_Schema
  2
AcDbDs::ID
280
    10
 91
        8
  2
Thumbnail_Data
280
    15
 91
        0
101
ACDSRECORD
 95
        0
 90
        1
  2
AcDbDs::TreatedAsObjectData
280
     1
291
     1
101
ACDSRECORD
 95
        0
 90
        2
  2
AcDbDs::Legacy
280
     1
291
     1
101
ACDSRECORD
  1
AcDbDs::ID
 90
        3
  2
AcDs:Indexable
280
     1
291
     1
101
ACDSRECORD
  1
AcDbDs::ID
 90
        4
  2
AcDbDs::HandleAttribute
280
     7
282
     1
  0
ACDSSCHEMA
 90
        1
  1
AcDbDs::TreatedAsObjectDataSchema
  2
AcDbDs::TreatedAsObjectData
280
     1
 91
        0
  0
ACDSSCHEMA
 90
        2
  1
AcDbDs::LegacySchema
  2
AcDbDs::Legacy
280
     1
 91
        0
  0
ACDSSCHEMA
 90
        3
  1
AcDbDs::IndexedPropertySchema
  2
AcDs:Indexable
280
     1
 91
        0
  0
ACDSSCHEMA
 90
        4
  1
AcDbDs::HandleAttributeSchema
  2
AcDbDs::HandleAttribute
280
     7
 91
        1
284
     1
  0
ACDSRECORD
 90
        0
  2
AcDbDs::ID
280
    10
320
452
  2
Thumbnail_Data
280
    15
 94
     1721
310
89504E470D0A1A0A0000000D49484452000001000000006B0803000000AFE8AC7900000300504C5445000000000000C8C8C80000000000000000000000000000000000000000000000000000330000660000990000CC0000FF0033000033330033660033990033CC0033FF0066000066330066660066990066CC0066FF0099
310
000099330099660099990099CC0099FF00CC0000CC3300CC6600CC9900CCCC00CCFF00FF0000FF3300FF6600FF9900FFCC00FFFF3300003300333300663300993300CC3300FF3333003333333333663333993333CC3333FF3366003366333366663366993366CC3366FF3399003399333399663399993399CC3399FF33CC00
310
33CC3333CC6633CC9933CCCC33CCFF33FF0033FF3333FF6633FF9933FFCC33FFFF6600006600336600666600996600CC6600FF6633006633336633666633996633CC6633FF6666006666336666666666996666CC6666FF6699006699336699666699996699CC6699FF66CC0066CC3366CC6666CC9966CCCC66CCFF66FF0066
310
FF3366FF6666FF9966FFCC66FFFF9900009900339900669900999900CC9900FF9933009933339933669933999933CC9933FF9966009966339966669966999966CC9966FF9999009999339999669999999999CC9999FF99CC0099CC3399CC6699CC9999CCCC99CCFF99FF0099FF3399FF6699FF9999FFCC99FFFFCC0000CC00
310
33CC0066CC0099CC00CCCC00FFCC3300CC3333CC3366CC3399CC33CCCC33FFCC6600CC6633CC6666CC6699CC66CCCC66FFCC9900CC9933CC9966CC9999CC99CCCC99FFCCCC00CCCC33CCCC66CCCC99CCCCCCCCCCFFCCFF00CCFF33CCFF66CCFF99CCFFCCCCFFFFFF0000FF0033FF0066FF0099FF00CCFF00FFFF3300FF3333
310
FF3366FF3399FF33CCFF33FFFF6600FF6633FF6666FF6699FF66CCFF66FFFF9900FF9933FF9966FF9999FF99CCFF99FFFFCC00FFCC33FFCC66FFCC99FFCCCCFFCCFFFFFF00FFFF33FFFF66FFFF99FFFFCCFFFFFF0000000D0D0D1A1A1A2828283535354343435050505D5D5D6B6B6B787878868686939393A1A1A1AEAEAEBB
310
BBBBC9C9C9D6D6D6E4E4E4F1F1F1FFFFFF00000000000000000000000000000000000000000000000000000000000008F1915C000003654944415478DAED9D5B76A3300C86BD0396E17999FDBF6925D986DEC7C63719CC6D0A4591A4933684F49C549F7FFDD88252E7FE37FEB00AF7FBF1C667B2FA650C800118C5DFA7C300
310
3002303D1D9FBA11A3EDFEB4C7BB001C8698BF7571D3079C62C400003E05C0CD63DCC70CA67FBC0AC039DC8070078DC94D7DEA7937A312707804E0961AF8B02D8167019C12C9DB25E00A00F75B39B303F06A18000360000C8001300006C000180003C01580D70C20AE8CFCB3AB23C60052E20140D94C0139C40340A2004C2F
310
49FAF2016019769FC5105FC5B49500480937139C45007A4A20B5873A0088F08419F20490DB630D40D80E63AE184090FFEC03B50664039833ED3D00920DC67D90CC503C003A134C09AB01D0E51F00F8922F9643A1700F580040E8E786EA00780F8B5005003D1972BCFF48C81080A70110BEBAD7BA1410B25D29409307C4D126
310
00F68E02783DD80348A92E016C28E0BA39F005E0EA84A70780DDFE1D00E7AE36600E000029006C5361271F4058FA00590C41C9694FE7DFEF0164961357BE3D80A3F1271D04EC600CE9F05440051019740D91A2002D00562D31282DB15D4F1774182CE3539AA290D2C7130735B2411D0FDDE64EC66D712C6D71384EBF74D125
310
0128F914051C01905602352B7FAE1BBC52801B29C07D9502B2399E5BFDC854C01500023DC0D589C1892E80480054018700C4964055C355132486F7D52678F20A117900166787E1A0352C6F2ABC3C3D8E0B6710AD003A4E7ED4CF583B822C051C0218CF0D162A39757115D7D3E363133C0070BA1D4A60AA04A05E01120038E5
310
00000C80013013340006C000C804D02F59FCF0F4AE6C003B0D9172818001500C00C403801D00A04101B06982AD1F285F016B00541DA0A504309600F6EFA9F280A8FA75475CFA1F4DD1DCE2A5B26EA000A74401AB6475006867854770F400D85287A612300057DE3300C23C805C3BFBD01F4C7DC73C002E2AE0EA7D571902F8
310
E1902E222D24A6B6A2120FA0BF89EAB4BA2AA0DDC9956B09DC0BC08D0170F6807B012CABA156452E06F1003E756139BC6FA94000F17ECAF556C27584150118BB7C8380ECE7013F554019FF98EAF090A8621E300320792F7C500C80CF2AD2ADF4A77A049849E4B4F3E6BC4F3080AA816ED8D3C06700C509C38FC80310CC3F4E
310
77E6A73CDA25D2669B0B86E797013C14B8B917C97B79A6F8260046F10A0019FF69EA1F3C964FD5B36676BF0000000049454E44AE42608200000049454E44AE426082AE426082
  0
ENDSEC
  0
EOF